<?xml version="1.0" standalone="no"?>
<!DOCTYPE svg PUBLIC "-//W3C//DTD SVG 1.1//EN" "http://www.w3.org/Graphics/SVG/1.1/DTD/svg11.dtd" >
<svg xmlns="http://www.w3.org/2000/svg" xmlns:xlink="http://www.w3.org/1999/xlink" version="1.1">
<metadata>
Created by FontForge 20170731 at Fri Jun  3 08:08:00 2011
 By Aleksey,,,
Copyright (c) 2010, Kimberly Geswein (kimberlygeswein.com)
</metadata>
<defs>
<font id="LaBelleAurore" horiz-adv-x="343" >
  <font-face 
    font-family="La Belle Aurore"
    font-weight="400"
    font-stretch="normal"
    units-per-em="1024"
    panose-1="2 0 0 0 0 0 0 0 0 0"
    ascent="819"
    descent="-205"
    x-height="364"
    cap-height="662"
    bbox="-357 -794.962 1232 1235"
    underline-thickness="51"
    underline-position="-152"
    unicode-range="U+0020-FB02"
  />
<missing-glyph horiz-adv-x="512" 
 />
    <glyph glyph-name=".notdef" horiz-adv-x="512" 
 />
    <glyph glyph-name=".null" horiz-adv-x="0" 
 />
    <glyph glyph-name="nonmarkingreturn" horiz-adv-x="512" 
 />
    <glyph glyph-name="space" unicode=" " horiz-adv-x="512" 
 />
    <glyph glyph-name="space" unicode="&#xa0;" horiz-adv-x="512" 
 />
    <glyph glyph-name="exclam" unicode="!" horiz-adv-x="387" 
d="M135 65q0 2 5 7t8 6q4 1 15 1.5t23.5 1.5t23.5 1.5t15 0.5q0 -28 -9.5 -52.5t-41.5 -30.5q-13 -2 -20.5 6t-11.5 20t-5.5 23.5t-1.5 15.5zM173 432q0 30 7 57.5t17 53.5t21.5 52t20.5 53q4 12 13.5 43.5t20 66.5t19.5 66.5t12 43.5q4 28 25.5 39.5t45.5 11.5
q0 -72 -21.5 -136.5t-49.5 -126.5t-54.5 -124.5t-36.5 -130.5h-6q-34 0 -34 31z" />
    <glyph glyph-name="quotedbl" unicode="&#x22;" horiz-adv-x="362" 
d="M18 719q0 28 7.5 61.5t24 62t41.5 47.5t60 19q0 -27 -10.5 -51t-23 -47.5t-23 -47t-10.5 -49.5q0 -11 4.5 -17.5t9.5 -12.5t9.5 -13t4.5 -18q0 -5 -0.5 -11t-3 -11t-8 -7.5t-16.5 -0.5q-23 4 -36.5 12.5t-20 20.5t-8 28t-1.5 35zM213 778q0 29 7.5 55t22.5 45.5t39 31
t57 11.5q0 -28 -15 -45t-31 -37t-26 -51t-1 -88q0 -3 -5 -8t-8 -5q-17 0 -25.5 11t-11.5 25.5t-3 30v24.5z" />
    <glyph glyph-name="numbersign" unicode="#" horiz-adv-x="720" 
d="M303 350q-19 -20 -26.5 -39t-10 -35t-2 -27.5t-2 -16t-11 -0.5t-28.5 19l5 105h-181q-2 0 -6.5 8t-6.5 12q0 1 -0.5 3t-0.5 4q0 20 15.5 24.5t39.5 4t53 -3t56.5 3t50 23.5t33.5 58h-208q-6 0 -9 4.5t-5 10.5t-2.5 11.5t-0.5 7.5q75 0 125.5 6t86 27.5t62 63.5t54.5 115
h6q14 0 24 -5t10 -19q0 -20 -7.5 -37.5t-17 -33.5t-17 -30.5t-7.5 -28.5q55 0 88 18t53.5 49t34 73.5t28.5 91.5h42q0 -23 -11 -50.5t-25 -56t-27 -55t-18 -46.5q2 0 6 -0.5t6 -0.5q32 0 62.5 7.5t62.5 7.5q20 0 33 -3t13 -26q0 -2 -0.5 -6t-1.5 -4l-195 -39
q-12 -3 -20.5 -19.5t-15 -38t-10.5 -42t-6 -30.5h147q0 -9 -2.5 -22t-14.5 -17q-7 0 -25.5 -1.5t-39 -3.5t-39.5 -4t-26 -3q-22 -4 -31 -20t-15 -34t-14.5 -32t-29.5 -14v86h-81zM442 532q-26 0 -48.5 -4t-40 -15.5t-27.5 -31.5t-10 -53h107q1 0 5.5 10t6.5 16q2 4 6 15.5
t8.5 23.5t8 23t4.5 15q-2 0 -10 0.5t-10 0.5z" />
    <glyph glyph-name="dollar" unicode="$" horiz-adv-x="589" 
d="M168 -24q1 7 1.5 13t2.5 12q-40 6 -71 26.5t-52.5 51t-32.5 67.5t-11 75q0 16 2 35.5t9 35.5t20.5 27t36.5 11q0 -13 -2.5 -24t-6 -22t-6 -23.5t-2.5 -27.5q0 -67 30.5 -115.5t94.5 -62.5q9 51 19 111t21 125t22.5 132t22.5 131q-20 26 -33.5 49t-13.5 41q1 33 22.5 58
t56.5 39l14 85q5 20 10.5 26t13.5 6q14 0 14 -32q-1 -10 -2.5 -28.5t-4.5 -43.5q42 7 96 1l10 51q5 20 10 26t13 6q14 0 14 -32l-6 -60q20 -5 41 -12t41 -16q27 -8 31 -20t-3 -25t-20 -25.5t-20 -20.5q-11 23 -31.5 36.5t-46.5 18.5q-7 -47 -16 -105.5t-21 -126.5
q37 -38 64 -71.5t27 -57.5q0 -103 -43.5 -177t-123.5 -112l-18 -92q-2 -14 -10.5 -23t-16.5 -9q-5 0 -7.5 10.5t-2.5 21.5v16l9 58q-45 -13 -101 -15l-7 -39q-2 -13 -11 -22.5t-16 -9.5q-5 0 -7.5 10.5t-2.5 21.5v16zM383 424q-19 21 -38.5 42t-38.5 42q-17 -102 -38 -219
t-45 -237q20 1 48 10.5t55 20.5zM316 573q16 -19 36.5 -40t41.5 -44l34 198q-26 1 -51.5 -3.5t-45.5 -12.5zM461 297q0 17 -10.5 36.5t-27.5 42.5q-11 -65 -23 -132.5t-26 -138.5l21 12q22 12 35 33.5t20 47t9 52t2 47.5z" />
    <glyph glyph-name="percent" unicode="%" horiz-adv-x="635" 
d="M168 27v6.5t1 5.5l246 428q1 0 1.5 8.5t0.5 13.5q0 32 -15 44t-52 12q-69 0 -107.5 -14.5t-58 -36.5t-27 -47t-16 -47t-23 -36.5t-48.5 -14.5q-25 0 -41.5 17t-16.5 41q0 56 33.5 93t82 58.5t102 30.5t94.5 9q22 0 45.5 -2t42.5 -10t31 -23.5t12 -42.5q0 -29 -3 -50.5
t-11 -54.5q-22 -44 -46.5 -94.5t-52 -102.5t-58 -101.5t-63.5 -90.5q-8 -10 -14.5 -18.5t-18.5 -8.5q-11 0 -15.5 8.5t-4.5 19.5zM427 77q0 29 13.5 52.5t33 43.5t42.5 38t42 36q2 0 6 0.5t6 0.5q13 0 21 -6.5t12.5 -16.5t6 -22t1.5 -22q0 -23 -9.5 -50t-25 -50.5t-37 -39.5
t-45.5 -16q-29 0 -48 10.5t-19 41.5zM550 183q-21 0 -35 -8.5t-22.5 -22t-12.5 -31t-4 -34.5q14 0 27.5 10.5t24 25.5t16.5 31.5t6 28.5z" />
    <glyph glyph-name="ampersand" unicode="&#x26;" horiz-adv-x="570" 
d="M195 130q-24 1 -55.5 8t-60 21.5t-48 37.5t-19.5 56q0 18 9 27.5t22.5 13.5t29 4.5t27.5 0.5q34 0 53.5 -4.5t29.5 -12.5t14 -18t9 -22t13.5 -24t27.5 -23q14 9 27.5 34t26 56.5t24.5 66t24 63t23 47t23 18.5q10 0 15 -5.5t6.5 -13.5t1 -16.5t-0.5 -14.5q0 -5 -0.5 -16
t-1.5 -13l-90 -181v-11q34 0 68 18.5t64 41t54.5 41.5t39.5 19q0 -32 -18 -57t-45.5 -44.5t-59.5 -34.5t-60.5 -26.5t-48 -20t-21.5 -16.5l-38 -130q0 -1 -4.5 -1h-6.5q-5 0 -14 2t-18 5.5t-15.5 8.5t-6.5 11v104zM73 251q0 -17 13.5 -27.5t31.5 -16.5t36.5 -9t27.5 -3
q0 1 0.5 3t0.5 3q0 17 -14 27t-32.5 15t-36.5 6.5t-27 1.5z" />
    <glyph glyph-name="quotesingle" unicode="'" horiz-adv-x="282" 
d="M262 486q0 -15 -3.5 -31t-12.5 -30t-24 -23t-38 -9q0 14 3 25.5t7 23t7 24t3 27.5q0 30 -10 47.5t-21.5 28t-21.5 16.5t-10 14q0 9 5.5 17t19.5 8q27 0 45.5 -15.5t29.5 -37.5t16 -45.5t5 -39.5z" />
    <glyph glyph-name="parenleft" unicode="(" horiz-adv-x="240" 
d="M18 135q0 22 7.5 65.5t20.5 95.5t31.5 106t41.5 98t49 72.5t55 28.5q0 -32 -5 -48t-13.5 -27t-19.5 -23t-23 -36q-17 -36 -33 -73t-29.5 -74.5t-21.5 -76.5t-8 -79q0 -35 10.5 -58t23 -39t23 -26.5t10.5 -20.5q0 -12 -8 -16.5t-18 -4.5q-28 0 -46 13.5t-28.5 33.5
t-14.5 44t-4 45z" />
    <glyph glyph-name="parenright" unicode=")" horiz-adv-x="331" 
d="M13 13q50 32 93 72t74.5 87.5t49.5 101t18 112.5q0 51 -13.5 96t-39.5 88q-6 11 -15.5 16t-18.5 9.5t-15.5 12t-6.5 22.5q57 0 91 -30t52 -74t23.5 -95.5t5.5 -93.5q0 -24 -14.5 -58.5t-38 -72t-53 -74.5t-60.5 -66.5t-60.5 -48t-51.5 -18.5q-8 0 -12 3t-8 11z" />
    <glyph glyph-name="asterisk" unicode="*" horiz-adv-x="707" 
d="M221 195q-9 -8 -24 -19t-31 -11q0 20 5.5 37.5t12.5 35t12.5 35.5t5.5 38h-175q-8 0 -11.5 7.5t-3.5 12.5v3q0 1 1 3q15 1 39.5 3t50.5 6t50.5 11.5t41.5 18.5v2q0 1 0.5 1.5t0.5 1.5q0 14 -4.5 25.5t-10.5 22t-10.5 20.5t-4.5 21q12 0 22 -6.5t19 -14.5t18.5 -14.5
t21.5 -6.5q9 0 16 15.5t13.5 39t14 51t18 51t23.5 39t32 15.5v-94q12 24 33 36t46 12q0 -21 -10.5 -44.5t-25.5 -46t-31 -42t-26 -32.5q4 0 16.5 -0.5t16.5 -0.5q38 0 76.5 4.5t77 9.5t77.5 9.5t78 4.5q0 -10 -20.5 -20t-53 -19.5t-72 -18t-77.5 -16.5t-70 -16t-49 -15
q17 -23 46 -40.5t57 -35.5t48.5 -40t20.5 -55q-32 0 -60 14t-54.5 33.5t-53 39.5t-56.5 32q-6 -14 -7.5 -38t-4 -47.5t-9 -40.5t-24.5 -17q-6 0 -11.5 4.5t-9.5 11t-7 13t-4 11.5z" />
    <glyph glyph-name="plus" unicode="+" horiz-adv-x="499" 
d="M168 168q0 27 6 52.5t6 51.5h-141q-15 0 -22 8.5t-7 19.5q0 3 1 7t2 4l195 39q6 1 10.5 9t8 17.5t5 17.5l1.5 8q1 4 3.5 15.5t4.5 23.5t4 23t2 16h3q1 0 1.5 0.5t1.5 0.5q17 0 31.5 -14.5t14.5 -31.5q0 -7 -3.5 -16.5t-8 -19.5t-9 -19.5t-6.5 -15.5q5 0 17 -1t16 -1
q42 0 82 7.5t82 7.5q9 0 17.5 -5t8.5 -16q0 -6 -9.5 -11t-21.5 -9.5t-22.5 -7.5t-13.5 -3q-10 -2 -34 -6t-50.5 -8t-50.5 -7.5t-33 -4.5l-39 -156q-3 -11 -10.5 -12.5t-15.5 -1.5q-20 0 -23.5 11t-3.5 28z" />
    <glyph glyph-name="comma" unicode="," horiz-adv-x="303" 
d="M213 95q0 15 -3 23.5t-6 15.5t-6 15t-3 22q18 0 38 -6t31 -23q0 -3 0.5 -10.5t1 -15.5t1 -15.5t0.5 -10.5q0 -37 -18.5 -76t-49 -71.5t-69 -53t-78.5 -20.5q0 14 12 28t30 29t38.5 31.5t38.5 36.5t30 45t12 56z" />
    <glyph glyph-name="hyphen" unicode="-" horiz-adv-x="419" 
d="M76 260q27 3 58.5 7.5t64.5 9t65.5 7.5t61.5 3q8 0 17 0.5t17.5 -2t15.5 -8t10 -17.5q-6 -11 -24 -19.5t-43 -14.5t-53 -9.5t-52 -6t-41.5 -3t-20.5 -0.5q-9 0 -22 1.5t-25 5t-20.5 8.5t-8.5 11v27z" />
    <glyph glyph-name="period" unicode="." horiz-adv-x="264" 
d="M140 82h25.5t30.5 -3t26 -10t11 -22q0 -22 -12 -35t-34 -13h-10.5t-15.5 1.5t-14.5 4.5t-6.5 8v69z" />
    <glyph glyph-name="slash" unicode="/" horiz-adv-x="454" 
d="M18 34q0 15 3.5 25.5t23.5 18.5q8 14 25 43.5t38.5 66.5t45.5 78t46 78t39.5 66.5t26.5 43.5q10 17 28 43.5t39 54t44 53.5t44 43q2 1 8 2.5t8 1.5q0 -15 -13.5 -44t-34.5 -64.5t-47 -74.5t-51 -76t-45.5 -69t-31.5 -52q-12 -21 -29.5 -56.5t-38.5 -73t-43.5 -73
t-44.5 -56.5q-3 -3 -13 -8t-12 -5q-6 0 -9.5 4.5t-4.5 10t-1 11v8.5z" />
    <glyph glyph-name="zero" unicode="0" horiz-adv-x="467" 
d="M12 130q0 1 0.5 5.5t0.5 6.5q22 70 47 145t59.5 144.5t80.5 130t110 101.5q12 0 15.5 -2t11.5 -13q25 -33 44.5 -61.5t32.5 -58t20 -63t7 -76.5q-1 -45 -17 -93.5t-43.5 -93.5t-64.5 -84t-80 -65.5t-90 -38t-94 -1.5q-13 9 -20.5 23t-12 30.5t-6 33.5t-1.5 30zM78 96
q0 -8 4 -12t10 -5.5t13 -1.5h13q57 0 104.5 35t82.5 87t54.5 110.5t19.5 105.5q0 32 -2.5 55.5t-11 43.5t-24.5 39.5t-43 42.5q-25 -18 -51.5 -55t-51 -83.5t-46 -99t-37.5 -102t-25 -92t-9 -68.5z" />
    <glyph glyph-name="one" unicode="1" horiz-adv-x="279" 
d="M18 26q0 2 0.5 6.5t0.5 6.5q22 60 47 133t51 149t51 148.5t48 132.5q8 17 16.5 22t22.5 5q27 0 27 -27q-2 -23 -14 -73t-36 -124t-60.5 -169.5t-87.5 -209.5q-4 -11 -19.5 -19t-25.5 -8q-11 0 -16 8.5t-5 18.5z" />
    <glyph glyph-name="two" unicode="2" horiz-adv-x="531" 
d="M24 39q0 3 1 12.5t2 13.5q58 49 99.5 92t76.5 87.5t69 95t78 114.5q24 48 22.5 64.5t-19.5 12.5t-48.5 -22t-65 -37.5t-68.5 -35t-58 -13.5q0 15 15.5 33.5t40 37.5t54.5 37.5t59.5 33t54.5 23.5t40 9q12 0 23.5 -4.5t20.5 -12.5t15 -18.5t6 -22.5q0 -35 -17.5 -74
t-43.5 -77t-56.5 -74.5t-56.5 -66.5t-43.5 -52.5t-17.5 -32.5q37 -25 70 -44q28 -17 54 -30t37 -13q20 0 36.5 6.5t32 11t32 3t37.5 -17.5q0 -1 -7.5 -7t-17.5 -14.5t-21.5 -17t-18.5 -13.5q-39 -25 -73 -21.5t-66 19.5t-63.5 37t-64.5 31q-27 0 -39.5 -14.5t-22 -32
t-20.5 -32t-34 -14.5q-22 0 -28 10t-6 30z" />
    <glyph glyph-name="three" unicode="3" horiz-adv-x="577" 
d="M19 156q0 11 10.5 12.5t15.5 1.5q15 0 25.5 -9t19.5 -22t17 -29t18.5 -29t24.5 -22t35 -9q52 0 99.5 22.5t83.5 60t57.5 86t21.5 99.5q0 22 -10 40.5t-36 18.5q-1 0 -3 -0.5t-3 -0.5q-3 -1 -14.5 -7t-24.5 -13t-24.5 -12.5t-14.5 -6.5q-2 -1 -10 1.5t-16.5 6.5t-16 8.5
t-8.5 8.5q15 23 43 50t58 53.5t56 50.5t37 41q0 27 -13.5 29.5t-35 -5.5t-48 -21t-53.5 -16h-3q-1 0 -3 1t-7.5 4.5t-11.5 7.5t-11.5 7.5t-7.5 5.5q17 21 41 40.5t51.5 33.5t56 22.5t55.5 8.5q20 0 35.5 -2t26 -8.5t16 -19t5.5 -34.5q0 -3 -2 -9.5t-12 -24.5t-31.5 -50.5
t-60.5 -86.5q12 -9 23.5 -21t21 -26.5t15.5 -30t6 -31.5q0 -64 -26 -124t-69.5 -106t-101 -74t-121.5 -28q-35 0 -66.5 10t-56 30t-39 49.5t-14.5 67.5z" />
    <glyph glyph-name="four" unicode="4" horiz-adv-x="603" 
d="M169 13q21 26 41 60t39 69.5t34.5 69.5t27.5 60v3q0 2 0.5 2.5t0.5 1.5q0 16 -15.5 23t-35.5 9t-39.5 1.5t-27.5 -0.5q-38 0 -57.5 -12.5t-31.5 -27.5t-22.5 -27.5t-30.5 -12.5q-14 0 -27 9t-13 24q0 7 17.5 36t45 67.5t60.5 81.5t64.5 79.5t56.5 60t36 23.5
q0 -28 -11 -57t-27.5 -59t-36 -60.5t-35.5 -60.5q0 -1 10.5 -2.5t25 -4t29.5 -4.5t25 -3h42q2 0 9.5 -1t16 0t15.5 4t9 11q3 8 11 24.5t18 37t21.5 43t22 43t18.5 36.5l12 24q12 22 21.5 39.5t20.5 30t26 19t39 6.5q0 -8 -9.5 -29.5t-21.5 -45.5t-23 -45t-14 -28
q-1 -7 -9 -22.5t-18.5 -35t-22 -41t-20 -39.5t-11.5 -30t3 -14q17 0 29.5 8t29.5 8q11 0 21.5 -4t10.5 -18q0 -15 -10.5 -23.5t-26.5 -14t-36 -10.5t-39 -12t-34.5 -19t-22.5 -31q-8 -23 -21 -62.5t-31.5 -77.5t-44 -66t-58.5 -28q-9 0 -16 1.5t-10 12.5z" />
    <glyph glyph-name="five" unicode="5" horiz-adv-x="693" 
d="M12 87q0 5 0.5 18.5t2 27.5t4.5 25t8 11h25q5 -30 12.5 -50t20.5 -32.5t33 -18t50 -5.5q47 0 90 16.5t75.5 46t51.5 70t19 89.5q0 20 -2.5 40.5t-10 37.5t-22 28t-38.5 11q-26 0 -40 -14.5t-25.5 -31.5t-23.5 -31.5t-34 -14.5q-17 0 -28.5 11.5t-11.5 28.5v7t1 5l135 244
l305 120q28 11 42.5 -1t14.5 -32q0 -11 -23 -21.5t-58.5 -23t-79 -28.5t-84.5 -37.5t-74.5 -50t-48.5 -65.5q25 2 53 1t51 -14q22 -20 33 -37.5t15.5 -35.5t5 -37.5t0.5 -43.5q0 -66 -19.5 -121t-57.5 -95t-93 -62.5t-126 -22.5q-22 0 -47.5 2.5t-48 11.5t-37.5 26.5
t-15 47.5z" />
    <glyph glyph-name="six" unicode="6" horiz-adv-x="473" 
d="M18 130q0 19 2 32.5t13 32.5l259 467h4q2 0 3.5 0.5t3.5 0.5q14 0 28 -5t14 -22q0 -10 -1.5 -15t-5 -9.5t-9 -10t-12.5 -17.5q-49 -90 -94.5 -176.5t-99.5 -174.5q-15 -23 -27 -45t-12 -53q0 -23 8 -36.5t22.5 -20.5t33.5 -9.5t40 -3.5q-4 7 -6 20.5t3 43.5t19 65.5
t39.5 67t64 53.5t93.5 24q36 0 48.5 -14.5t12.5 -49.5q0 -50 -26 -99t-67 -88t-92 -63.5t-102 -24.5q-35 0 -64 6.5t-49.5 21.5t-32 40t-11.5 62zM370 285q-23 -4 -44.5 -24t-38 -46.5t-26.5 -53t-10 -44.5q0 -3 0.5 -13.5t1.5 -12.5q24 9 51.5 25t51 37t39 47t15.5 55
q0 17 -6 26t-34 4z" />
    <glyph glyph-name="seven" unicode="7" horiz-adv-x="538" 
d="M148 20q0 2 1 3q0 2 1 3q60 132 123 261.5t136 257.5q2 4 6 14.5t8 23t7 24t4 16.5h-14t-21.5 0.5t-22 0.5h-14.5q-23 0 -51 -2.5t-56.5 -7.5t-56 -12.5t-48.5 -17.5q-17 -8 -26.5 -18.5t-15.5 -20.5t-11 -19.5t-13 -16.5t-21.5 -11.5t-36.5 -4.5h-7q15 15 28.5 36.5
t27.5 44t28.5 42.5t32.5 32q74 34 159 44t165 8q19 -3 30 -7.5t16 -12.5t6.5 -20t1.5 -30q-74 -159 -135 -280t-105.5 -201.5t-70 -118.5t-28.5 -31q-10 0 -18.5 4.5t-8.5 15.5v1z" />
    <glyph glyph-name="eight" unicode="8" horiz-adv-x="525" 
d="M18 106q0 36 17.5 74.5t42 74t51.5 67t46 54.5q-2 12 -8 41.5t-12 62.5t-11.5 62.5t-7.5 41.5q-1 1 -1 3v4q0 21 15 41.5t39 38.5t53.5 33t58.5 26t54 17t41 6q4 0 20.5 -6t35 -14t33 -17t14.5 -16q-2 -40 -5.5 -65t-8 -39t-8 -19.5t-4.5 -6.5q-10 -20 -37.5 -50
t-59.5 -61.5t-63 -61t-47 -47.5q10 -23 16 -41t8 -35.5t2.5 -36t0.5 -40.5q0 -37 -6 -72.5t-22 -63.5t-44 -45t-71 -17q-29 0 -53.5 5.5t-42 18t-27 33t-9.5 50.5zM84 123q0 -36 14.5 -48t45.5 -12q21 0 39 13t31.5 33t20 43t5.5 43q0 6 -5 21t-11 31.5t-12.5 31t-10.5 19.5
q-18 -12 -38.5 -32t-38 -43.5t-29 -49.5t-11.5 -50zM214 596q0 -42 1 -84.5t25 -83.5l181 156q-13 6 -13 19q0 10 6.5 16.5t14 12t14 11.5t6.5 17q0 23 -14.5 25.5t-34.5 2.5q-24 0 -51.5 -6t-53 -17.5t-47 -29t-34.5 -39.5z" />
    <glyph glyph-name="nine" unicode="9" horiz-adv-x="479" 
d="M180 47v9.5t1 8.5l168 414v10q-26 0 -54 -11.5t-57.5 -25.5t-59.5 -25.5t-61 -11.5q-21 0 -38 11t-29 27.5t-18.5 36.5t-6.5 37q0 29 15.5 55.5t41.5 48.5t58.5 39.5t66.5 30t66 19t57 6.5q12 0 29.5 -1t35.5 -5t34 -12t25 -21q0 -4 0.5 -14t1 -21.5t1 -22t0.5 -14.5
q0 -10 -8 -41.5t-22 -76.5t-32 -99.5t-37.5 -110t-39.5 -107.5t-37.5 -92t-31.5 -64.5t-22 -24.5q-22 0 -34.5 14t-12.5 34zM89 532q0 -16 2.5 -24.5t8.5 -12t16.5 -3.5h26.5q18 0 44.5 5t55.5 14.5t57.5 23.5t51 32t36.5 40t14 48q0 9 -8.5 13t-19.5 5.5t-22 1.5h-16
q-14 0 -37.5 -5t-51 -14t-55.5 -22t-51 -28.5t-37.5 -34.5t-14.5 -39z" />
    <glyph glyph-name="colon" unicode=":" horiz-adv-x="219" 
d="M94 239q0 36 16.5 46t54.5 10q0 -10 1 -25t-0.5 -29t-8 -24t-22.5 -10q-18 0 -29.5 6t-11.5 26zM108 525q0 26 14.5 36.5t35.5 10.5h12.5t14 -2t11 -6t4.5 -13q0 -6 -4 -15t-10 -18t-13 -16.5t-13 -8.5q-5 -1 -13.5 1t-17 6.5t-15 11t-6.5 13.5z" />
    <glyph glyph-name="semicolon" unicode=";" horiz-adv-x="244" 
d="M134 -39q0 1 2 7t4 14.5l4 17t3 13.5v7q0 9 -4 16.5t-9.5 14.5t-9.5 14.5t-4 18.5t3 22.5t17 11.5q21 0 35 -11.5t22.5 -28.5t12 -36.5t3.5 -35.5q0 -33 -18.5 -67t-47 -61.5t-63 -45t-67.5 -17.5v17zM173 402q23 0 32 -8t9 -30q0 -37 -23 -49t-57 -12v86q0 4 5 7t11.5 4
t13 1.5t9.5 0.5z" />
    <glyph glyph-name="less" unicode="&#x3c;" horiz-adv-x="415" 
d="M5 227q0 11 9 19t18 14q10 6 31.5 19t48 29.5t56.5 35t56.5 35t48 29.5t31.5 20l21 14t18 9.5t19.5 5.5t26.5 2q0 -25 -13 -40t-33 -30q-12 -8 -43.5 -28.5t-66.5 -43t-66 -43t-44 -27.5q-14 -8 -14 -21v-3q0 -1 1 -2l246 -39q0 -2 1 -4q0 -2 0.5 -3.5t0.5 -2.5
q0 -28 -28 -42h-12.5t-20 -0.5t-19.5 -0.5h-13q-13 0 -37.5 1.5t-53.5 6t-59 11.5t-54.5 18t-40 26t-15.5 35z" />
    <glyph glyph-name="equal" unicode="=" horiz-adv-x="389" 
d="M366 173q0 -10 -3.5 -18t-13.5 -13q-10 -2 -31 -5t-48 -6.5t-56.5 -8t-56 -8t-48 -7t-31.5 -4.5q-3 -1 -15.5 -1.5t-14.5 -0.5q0 24 14.5 37.5t35.5 19.5t43.5 7.5t39.5 2.5q10 1 36.5 1.5t56 1.5t56 1.5t36.5 0.5zM51 285q1 1 26.5 4t60.5 7.5t72.5 8.5t61.5 6h34
q6 0 13.5 0.5t14.5 -1t11.5 -5.5t4.5 -13q0 -2 -0.5 -4t-0.5 -3q-60 -22 -131.5 -38t-136.5 -16q-17 0 -32.5 2.5t-22.5 25.5z" />
    <glyph glyph-name="greater" unicode="&#x3e;" horiz-adv-x="440" 
d="M26 91q7 19 25.5 36t44 32t55.5 27t59 21.5t55.5 16t44.5 9.5q0 1 0.5 3.5t0.5 3.5q0 13 -15 21t-24 11q-13 5 -46 16l-70.5 23.5l-70.5 23.5t-46 15q-16 20 -14.5 34.5t13.5 22.5t30.5 10t37 -1.5t32.5 -13.5t18 -26l232 -90q41 -17 41 -52q0 -16 -10.5 -24t-25.5 -11
t-30.5 -3.5t-25.5 -0.5l-272 -117q-2 0 -3.5 -0.5t-3.5 -0.5q-9 0 -16.5 3.5t-15.5 10.5z" />
    <glyph glyph-name="question" unicode="?" horiz-adv-x="457" 
d="M113 45q0 15 10.5 18.5t21.5 3.5q7 0 18.5 -2t21.5 -7t16.5 -13t3.5 -19q-4 -16 -16 -21.5t-23 -5.5q-19 0 -36 13.5t-17 32.5zM190 342q0 54 20 109t49.5 108t63.5 102t63 91q0 1 0.5 3t0.5 4q0 18 -15.5 25.5t-29.5 7.5q-24 0 -43.5 -8.5t-38 -15.5t-38.5 -7.5
t-44 16.5q0 2 10.5 10t25 18.5t30 21t25.5 16.5q17 9 38 11t40 2q42 0 67 -17t25 -62q-3 -28 -21 -65t-42.5 -78.5t-52 -86t-48 -87t-31 -81t-0.5 -68.5q-10 -6 -17 -9.5t-16 -3.5t-13.5 5t-6 12t-1.5 14.5v12.5z" />
    <glyph glyph-name="at" unicode="@" horiz-adv-x="726" 
d="M18 258q0 62 21.5 120t58 109t86 93.5t106 73.5t116.5 50t119 22q83 5 133 -30.5t50 -113.5q0 -32 -7.5 -70t-21.5 -77t-35 -75.5t-47.5 -65t-59 -45.5t-70.5 -17q-22 0 -40 7.5t-39 7.5q-14 0 -26.5 -8.5t-25 -18t-26.5 -18t-31 -8.5q-34 0 -50 12.5t-16 45.5
q0 44 23 91.5t60.5 86.5t83.5 64.5t93 25.5q16 0 28 -1.5t24 -12.5q0 -3 0.5 -10.5t1 -15.5t1 -15.5t0.5 -10.5q0 -28 -12 -46.5t-26.5 -34t-26.5 -32t-12 -40.5q50 0 90.5 26t69 66.5t43.5 89.5t15 96q0 60 -31 84.5t-94 24.5q-55 0 -112 -14.5t-109 -42t-98 -65.5t-80 -85
t-53.5 -101.5t-19.5 -114.5q0 -53 22 -93t58 -67t81.5 -41t92.5 -14q28 0 55 6.5t54 14.5t53.5 14.5t53.5 6.5q0 -29 -29.5 -47t-69 -28t-79 -14t-59.5 -4q-54 0 -106 18.5t-92 52.5t-64.5 81.5t-24.5 106.5zM473 470q-38 0 -73.5 -19.5t-63 -50.5t-44 -69t-16.5 -75
q26 0 45 11.5t33.5 30t26.5 41.5t25 45t29 40.5t38 29.5v16z" />
    <glyph glyph-name="A" unicode="A" horiz-adv-x="878" 
d="M660 45q0 25 3.5 50t8 49.5t8 50t3.5 51.5q-33 0 -57 -3t-47 -6t-49 -4.5t-63 0.5q-27 -30 -61.5 -64t-73.5 -63t-82 -48.5t-87 -19.5q-30 0 -57.5 10t-48.5 28t-33 43.5t-12 56.5q0 16 5.5 24.5t23.5 8.5q9 0 16 -16.5t18.5 -37t29.5 -37t49 -16.5q38 0 74.5 14.5t70 37
t63 50.5t53.5 55q-3 25 -18 37t-31.5 24t-29.5 32t-13 63q0 61 37 95.5t101 34.5q19 0 37.5 -4t37.5 -9.5t37.5 -9.5t37.5 -4q12 0 19.5 3t13.5 9t13 16t18 24q6 8 18.5 25.5t27.5 39t32 45.5t32 46t27 39t17 26q11 9 20 11.5t21 2.5t18 -8.5t7.5 -20.5t1 -24.5t-0.5 -19.5
v-9.5t-0.5 -13.5t-0.5 -13.5v-8.5q-3 -10 -9.5 -30t-14.5 -45.5t-16.5 -53.5t-16 -54t-13.5 -46t-8 -30q-1 -5 -3 -16t-4 -23.5t-4 -23.5t-2 -15q9 -2 18 -6t9 -13q0 -10 -7.5 -16t-17.5 -11t-18.5 -12t-9.5 -20q-2 -12 -7 -43.5t-11.5 -67t-12 -66.5t-8.5 -43q-1 -3 -4 -11
t-7 -16t-8 -15t-6 -10q-24 5 -39 12.5t-15 32.5zM643 429q-12 0 -33.5 -17t-42.5 -39.5t-37 -45t-16 -33.5q6 0 23.5 0.5t37 1t37 1.5t24.5 1q4 0 12.5 2t16.5 4t14.5 4t7.5 3q1 0 1 6.5v10.5q0 8 -2.5 25t-8 34t-14 29.5t-20.5 12.5zM362 428q0 -14 10 -32t25 -34t32 -27
t32 -11q14 0 33 17t36.5 39.5t29.5 43.5t12 29q0 17 -11.5 25.5t-27 12t-32.5 3.5h-28q-14 0 -33.5 -2.5t-36.5 -9.5t-29 -20t-12 -34zM662 479q22 -26 41 -56t36 -61l89 320z" />
    <glyph glyph-name="B" unicode="B" horiz-adv-x="707" 
d="M233 -1q-18 4 -40 4.5t-45 2.5t-44.5 6.5t-37 15t-23.5 28.5t-4 47l-5 15t-8.5 25t-8.5 24t-4 14q-1 7 3 14t10 12t13 8.5t13 4.5q1 -3 3.5 -13.5t7 -22t10.5 -21t12 -9.5q4 0 8 4t11.5 18t20.5 40t35 69t55.5 107t82.5 153q9 15 32.5 38.5t55 49t68 51.5t72 47t66.5 34
t51 13q8 0 18.5 -0.5t13.5 -12.5v-8.5t0.5 -14t0.5 -14v-8.5q0 -37 -12 -66.5t-32 -54t-46.5 -47t-54.5 -46.5q0 -1 -0.5 -3t-0.5 -4q0 -1 12.5 -15.5t27 -37t27 -51t12.5 -58.5q0 -63 -36.5 -123.5t-92 -108.5t-121.5 -77t-126 -29zM141 91q0 -14 11 -20.5t25 -8t28.5 -0.5
t20.5 1q63 0 114 18.5t90 53t67.5 82.5t47.5 107q0 2 0.5 9.5t0.5 9.5q0 39 -11.5 60.5t-32 32t-49.5 13.5t-64 5q-5 1 -14.5 10.5t-10.5 14.5q-2 5 3 15t9 12q40 1 82 17.5t76.5 44.5t56.5 66t22 82q-37 0 -78.5 -25.5t-80 -62t-69.5 -77.5t-48 -72q-7 -14 -22.5 -43
t-35 -66t-40.5 -78t-40 -78t-34 -67l-22 -44q-1 -2 -1.5 -6t-0.5 -6z" />
    <glyph glyph-name="C" unicode="C" horiz-adv-x="442" 
d="M13 111q7 58 25 110.5t44 102t58 97.5t68 97q21 27 46 55t54 51t62.5 37.5t70.5 14.5q20 0 31 -2.5t16.5 -10t6.5 -21.5t0 -36q0 -25 -9 -51t-25 -49t-38 -40.5t-47 -25.5v14q0 21 9.5 40t21.5 38.5t21.5 40.5t9.5 45q-11 0 -19 1.5t-14.5 2t-13 -2t-15.5 -10.5
q-49 -40 -100.5 -93.5t-93.5 -115.5t-68.5 -129.5t-26.5 -135.5q0 -3 0.5 -10l1 -14t1.5 -13t1 -7q11 -11 26.5 -13t23.5 -2q43 0 80.5 15t73.5 32.5t72.5 32.5t77.5 15q0 -16 -18.5 -35.5t-48 -38.5t-65.5 -36.5t-70.5 -31.5t-63 -22t-43.5 -8q-22 0 -44 8.5t-39.5 23.5
t-28.5 35.5t-11 44.5z" />
    <glyph glyph-name="D" unicode="D" horiz-adv-x="752" 
d="M6 26q0 15 10 33.5t23.5 35t26 29.5t18.5 18l220 403q10 8 18 20.5t16.5 24t19 19.5t25.5 8q0 -16 -3.5 -38.5t-10.5 -33.5l-189 -337q30 12 55.5 7.5t47.5 -17.5t41.5 -31.5t37 -35.5t33.5 -29t32 -12q35 0 68 35t63 90t55 122t43 130.5t28 116t10 78.5q0 14 -2.5 30.5
t-9.5 30t-18.5 22.5t-29.5 9q-27 0 -49 -23t-40 -59t-31.5 -80.5t-23 -86.5t-14 -77t-4.5 -53q0 -20 4.5 -38t10.5 -35t10.5 -34.5t4.5 -36.5q-28 0 -44.5 14t-24.5 35t-10.5 45.5t-2.5 45.5q0 24 6.5 67t19 92.5t31 100.5t43 92.5t55 68t66.5 26.5q3 0 13.5 -1t13.5 -1
q16 -20 28 -38t20.5 -36t12.5 -38t4 -45q0 -31 -9.5 -90t-27.5 -129.5t-44 -144t-60 -133.5t-75 -98.5t-88 -38.5q-32 0 -54.5 10t-39.5 24.5t-31 32t-29 32t-33 24.5t-44 10q-27 0 -47 -17t-35 -42t-26 -52t-19 -47q-2 0 -6.5 -0.5t-6.5 -0.5q-5 0 -13.5 2t-17 5.5t-15 8.5
t-6.5 11z" />
    <glyph glyph-name="E" unicode="E" horiz-adv-x="435" 
d="M12 131q3 48 29 90.5t61.5 79.5t75 68.5t69.5 58.5q0 6 -5.5 16t-8.5 35q0 44 20 80.5t52.5 62t73 39.5t82.5 14q18 0 30 -13.5t19 -32.5t9.5 -39t2.5 -33h-35q0 11 -2.5 23t-8 21.5t-14 16t-21.5 6.5q-23 0 -50 -12.5t-50.5 -32t-39.5 -44.5t-16 -50q0 -13 8.5 -18.5
t22 -7.5t28.5 -2t28.5 -1.5t22 -7.5t8.5 -19q0 -8 -2 -15.5t-12 -12.5q-58 -15 -104.5 -35.5t-84.5 -49t-70.5 -67.5t-63.5 -93q0 -2 -0.5 -10t-0.5 -10q0 -36 20.5 -54.5t54.5 -18.5q38 0 85.5 12t92.5 26t82.5 26t55.5 12q-1 -22 -19 -42t-47 -36.5t-65.5 -29.5t-74 -21
t-73 -11t-62.5 0q-26 0 -45.5 12t-32 31t-19 42.5t-6.5 46.5z" />
    <glyph glyph-name="F" unicode="F" horiz-adv-x="703" 
d="M12 91v15t2 17.5t6 14.5t12 6t17.5 -14.5t24.5 -32t37.5 -32t56.5 -14.5q26 0 62 8t74.5 22.5t76 35t67.5 45t48.5 52t18.5 57.5q-36 0 -69 -8t-73 -8q0 9 3 17.5t13 12.5l181 77l27 27q4 10 15 34t23.5 50.5t23.5 50.5t16 33q0 1 4 7t8.5 12.5t8 12t4.5 7.5q0 8 -1 14
t-12 13q-95 -35 -183 -64.5t-179 -65.5q-1 0 -3.5 -0.5t-4.5 -0.5q-8 0 -13.5 6t-5.5 14q0 10 33.5 30.5t84.5 44t112.5 48.5t117.5 45.5t99 33.5t58 13q21 0 37 -10t16 -36q0 -8 -4.5 -13t-11 -8.5t-13 -6t-10.5 -5.5q-6 -5 -16 -15t-20.5 -20t-18.5 -18.5t-9 -10.5
q-9 -15 -22.5 -41.5t-25.5 -53.5t-21 -48.5t-9 -25.5v-19q4 0 14.5 2.5t21.5 3.5t19.5 -3t8.5 -17q0 -12 -13 -20q-5 -2 -17.5 -7.5t-27 -11.5t-27.5 -11.5t-18 -7.5q-44 -72 -92.5 -132t-107 -102.5t-130 -66.5t-159.5 -24q-19 0 -42.5 5t-44 16.5t-34.5 29t-14 41.5z" />
    <glyph glyph-name="G" unicode="G" horiz-adv-x="699" 
d="M71 52q-3 6 -10.5 20.5t-16 31t-15.5 31.5t-10 21t-8 21t-5 18q0 11 5.5 25t14.5 26t21 20t24 8q2 0 6.5 -1t6.5 -1q-16 -20 -22 -35.5t-6 -35.5q0 -10 7 -26.5t18 -32.5t24 -27.5t24 -11.5h7q8 6 28.5 22.5t43.5 35.5t43 35.5t28 23.5q7 6 25 24t38.5 39t39 40t26.5 27
q2 1 6 6.5t8 12t7.5 12t4.5 8.5v6q0 16 -7 28.5t-7 29.5q0 30 19 77t50 100.5t70.5 107.5t80 97.5t78.5 71t67 27.5q20 0 29.5 -14t9.5 -31q0 -22 -14 -51.5t-33.5 -59.5t-39 -58t-30.5 -46q-4 -6 -19.5 -28.5t-33.5 -49t-33 -49.5t-19 -29q-2 -2 -6.5 -12t-5.5 -13
q37 14 75 41t67 50h13q18 0 29 -6.5t11 -26.5q0 -3 -0.5 -11t-1.5 -9l-154 -350q-22 -49 -56.5 -80t-77 -49.5t-90.5 -26t-97 -9.5t-96.5 -1.5t-88.5 -1.5q-2 0 -9.5 -2t-16.5 -4t-16.5 -4.5t-9.5 -2.5q-3 0 -11 -0.5t-17 -1t-17 -1t-11 -0.5q0 24 7 29.5t16 6.5t18.5 2.5
t14.5 16.5zM240 103q-17 -5 -29.5 -15t-23.5 -23h78q56 0 103 6t87 24t73 51t62 87q6 12 19.5 43t28 66.5t26.5 67t16 44.5h-3h-2q-1 0 -1 1q-33 0 -67.5 -14t-66.5 -35.5t-59.5 -47t-46.5 -47.5q-7 -8 -22 -24t-34 -36.5t-40.5 -43.5t-40.5 -43.5t-34.5 -36.5t-22.5 -24z
M745 868q-21 -18 -47 -45.5t-53.5 -61.5t-54 -71.5t-47 -74t-33 -70t-12.5 -59.5q0 -2 0.5 -9.5t0.5 -9.5q7 8 23.5 30t35 46.5t35 47.5t22.5 32q15 22 37 58t42.5 71.5t35.5 61.5t15 29v25z" />
    <glyph glyph-name="H" unicode="H" horiz-adv-x="1013" 
d="M4 70q0 8 5 17t13 17t17 13t17 5h6.5t6.5 -1q-12 -13 -13.5 -26t-1.5 -28q0 -23 10.5 -37.5t26.5 -23t35.5 -12t37.5 -3.5q75 0 138 20.5t115.5 56t95.5 84t79.5 105t67 117.5t57.5 123h-3h-2q-1 0 -1 1q-30 0 -58 -16.5t-56 -37t-57 -37t-60 -16.5q0 8 23.5 30t59.5 51
t77.5 61t77 58.5t59.5 44l24 17.5q19 0 27 -15.5t8 -31.5q0 -3 -0.5 -10t-1.5 -8q-44 -95 -73 -158t-47 -101t-26.5 -56.5t-11 -24.5t-1 -4.5t4.5 2.5q10 4 39.5 10.5t63 13.5t63 12.5t40.5 7.5l12 12q44 92 90.5 182.5t91.5 181.5q19 16 25 7.5t5.5 -27.5t-6.5 -40.5
t-11 -31.5l-246 -543q-9 -20 -19 -24t-25 -4q-9 0 -20 1t-14 13q19 17 35.5 43.5t28.5 55t18.5 57t6.5 50.5q-2 0 -5.5 1t-5.5 0q-31 -10 -66 -15.5t-70 -12t-67 -17.5t-56 -32q-58 -49 -100 -87.5t-86 -65.5t-99 -41t-137 -14q-33 0 -62 6.5t-51.5 21.5t-35.5 40t-13 63z
" />
    <glyph glyph-name="I" unicode="I" horiz-adv-x="821" 
d="M13 233q-1 4 0 11.5t3 16t5 15.5t6 9q0 1 6.5 2.5t10.5 1.5q16 0 25 -9t17.5 -19.5t20 -19.5t32.5 -9q56 0 103.5 19t89 41.5t79 41.5t73.5 19q0 -14 -12.5 -30t-30 -31t-36 -27t-29.5 -18q-33 -20 -60 -33.5t-55 -23t-59 -14.5t-72 -7q4 -5 15 -16l23.5 -23.5
l23.5 -23.5t16 -15q9 -8 21 -11.5t24.5 -4t25 0.5t23.5 1q25 0 58.5 3.5t65.5 13t57.5 27.5t35.5 48q2 6 7.5 25t13.5 44t17 54t17 54t14.5 44t8.5 25q18 36 42.5 75.5t54.5 74t64 61t71 36.5q35 0 50.5 -24t15.5 -54q0 -75 -31 -146t-78.5 -135t-105 -118t-110.5 -94
q0 -3 -1.5 -8.5t-3.5 -11.5t-4 -11.5t-3 -7.5q-1 -1 -2 -1h-3q-2 0 -4.5 0.5t-3.5 0.5q-5 1 -19.5 6t-19.5 7q-9 -3 -31 -11t-47 -16t-47 -15t-31 -10q-2 -1 -10 -2.5t-18.5 -3.5t-20.5 -4l-15 -3h-7q-46 0 -87 22.5t-74.5 57t-60 75.5t-44.5 78zM848 601q-33 0 -65.5 -22.5
t-62 -58.5t-54.5 -81.5t-43.5 -91t-29 -88t-10.5 -71.5q0 -2 0.5 -4t0.5 -3q57 34 105 78.5t83.5 98.5t55.5 115t20 128z" />
    <glyph glyph-name="J" unicode="J" horiz-adv-x="641" 
d="M-30 -322q-7 2 -13 6.5t-8.5 10.5t-1 12t10.5 10q44 15 84 32t74.5 40.5t63 56.5t49.5 79l364 777h-13q-2 0 -22 -9t-46.5 -21t-54.5 -25t-45 -22q-24 -12 -55.5 -33.5t-65 -49.5t-65.5 -60.5t-57.5 -66t-41 -66.5t-15.5 -61q0 -11 4.5 -19t10.5 -15.5t10.5 -16
t4.5 -18.5q-21 0 -36 7.5t-24.5 20t-14 28.5t-4.5 33q0 26 9 49.5t23.5 45t32.5 41t37 38.5q16 16 43 41.5t54 50.5t48 43.5t24 20.5l311 168q22 13 38.5 37t33 47.5t37.5 41t53 17.5q9 0 16 -3.5t16 -9.5q1 -4 1.5 -16.5t0.5 -16.5v-20.5t-2.5 -13t-8 -10.5t-17.5 -14
q-9 -7 -31.5 -24t-48.5 -39.5t-49.5 -47t-32.5 -45.5l-227 -453q-1 -5 -5.5 -19.5t-6.5 -19.5q-8 -16 -20.5 -42.5t-27 -57t-30 -63t-29 -60.5t-23.5 -48.5t-14 -26.5q-17 -33 -48.5 -74t-71.5 -76t-86 -56t-92 -15z" />
    <glyph glyph-name="K" unicode="K" horiz-adv-x="490" 
d="M310 -246q0 78 2.5 148t11.5 150q-3 30 -7 65.5t-12.5 70t-23 63.5t-37.5 45q-46 -55 -75.5 -100.5t-48 -80t-29.5 -57t-20 -31.5t-19 -3t-26 28q18 29 46 75.5t61.5 103.5t70.5 120.5t73.5 125t69.5 117.5t59 98q9 4 14.5 4t8 -2t3 -4.5t0.5 -3.5q0 -27 -13.5 -65
t-33 -77.5t-40 -74t-35.5 -53.5q30 7 64.5 26t69 43t68 51t63 49t53.5 36.5t40 14.5q5 0 10 -5t9 -12.5t6.5 -15t2.5 -11.5q-17 0 -46 -17.5t-76 -50.5t-114.5 -79.5t-160.5 -103.5q11 -15 24.5 -36t25 -44t19.5 -47t8 -45q5 -102 -3 -203t-11 -198q41 -9 57.5 -19.5
t15.5 -19t-15.5 -13.5t-34 -3.5t-40.5 11t-35 30.5z" />
    <glyph glyph-name="L" unicode="L" horiz-adv-x="689" 
d="M424 205q-14 0 -28 -15.5t-30.5 -38.5t-36.5 -50.5t-45.5 -50.5t-57.5 -38.5t-73 -15.5q-19 0 -43.5 1.5t-46 8t-36 21t-14.5 40.5q0 35 21.5 63.5t56 51.5t77 40t84.5 29t79 19.5t60 11.5l195 311q13 21 35 44t48 42.5t54.5 32.5t54.5 13q5 0 18.5 -2t27 -14t24 -39
t10.5 -77q-7 -2 -13 -6.5t-13.5 -9t-17 -8t-21.5 -3.5q16 33 11.5 52.5t-20.5 26.5t-40 3t-48 -16.5t-43.5 -32.5t-27.5 -45l-169 -286v-13q41 -29 62.5 -63t33 -68.5t17.5 -67.5t15.5 -59.5t27 -44t52.5 -21.5q0 -1 0.5 -3t0.5 -3q0 -12 -9.5 -18.5t-22.5 -10t-26.5 -4.5
t-21.5 -1q-21 18 -34.5 48t-23.5 64.5t-18.5 70t-19.5 64t-26 47.5t-39 20zM67 81q0 -12 8.5 -19t20.5 -10t24.5 -4t19.5 -1q27 0 60 14.5t61.5 37.5t48 51.5t19.5 57.5q-78 0 -145.5 -27.5t-115.5 -93.5q0 -1 -0.5 -3t-0.5 -3z" />
    <glyph glyph-name="M" unicode="M" horiz-adv-x="954" 
d="M758 46q0 58 15.5 117.5t39 117.5t50.5 112.5t51 102.5v13q-11 -12 -34.5 -37.5t-53 -57.5t-62 -67.5t-62 -67.5t-52.5 -57.5t-34 -37.5t-21 -35.5t-22 -47.5t-26.5 -42t-32.5 -18q-15 0 -23.5 3t-12.5 9.5t-5 16.5t-1 24q0 74 21.5 143.5t45.5 141.5v13q-2 -2 -7 -6.5
t-6 -6.5q-24 -36 -49 -77.5t-52 -82t-58 -77.5t-67 -65.5t-78.5 -45.5t-93.5 -17q-11 0 -29.5 1t-36 6t-30 16t-12.5 31q0 8 9.5 20.5t16.5 17.5q14 -23 23.5 -30.5t27.5 -7.5q30 0 63.5 9.5t65 25.5t59.5 37t47 44q15 20 36.5 51.5t46 69t50.5 76.5t50.5 74.5t45.5 63.5
t36 42q14 0 21 -4.5t10 -12.5t3 -19v-23q0 -42 -12.5 -82t-27.5 -77.5t-27.5 -73.5t-12.5 -71q0 -2 0.5 -7t0.5 -7q94 104 162 180t115.5 129.5t77.5 87t48 52t27.5 25.5t15.5 7q10 0 15 -6t6.5 -14t1 -17t-0.5 -15q0 -42 -15.5 -85.5t-39 -89t-51 -92t-51 -95.5t-39 -99.5
t-15.5 -103.5q0 -27 1 -39.5t6 -21t16 -18t31 -30.5q-23 -13 -44.5 -10.5t-37 17.5t-22.5 41t-1 59z" />
    <glyph glyph-name="N" unicode="N" horiz-adv-x="891" 
d="M602 56q0 55 4 110.5t9.5 110.5t9.5 110.5t4 111.5v71q-2 -2 -6 -7.5t-8.5 -11.5t-8 -11.5t-4.5 -8.5q-4 -7 -15.5 -28.5t-27.5 -51t-34 -62.5t-34 -62.5t-28.5 -51t-16.5 -28.5q-20 -34 -43 -75t-51.5 -77t-64.5 -60t-82 -24q-47 0 -83.5 20.5t-62.5 54t-39.5 75.5
t-13.5 86q0 5 5 19.5t8 18.5q16 -13 28 -32.5t22.5 -41.5t21 -43.5t24 -39t31.5 -28.5t44 -11q34 0 59.5 12.5t46.5 33t41 46t45 52.5q8 14 24.5 42t37.5 64t43.5 75.5t42.5 75t36 64t24 42.5q2 4 9.5 21t16 37t16 37t9.5 22q6 13 19 13q18 0 25.5 -19t9.5 -43t0.5 -45
t-1.5 -25q0 -71 -7 -141t-7 -142v-85q7 16 22 52t34 82t40 97.5t40.5 97.5t34.5 81.5t23 50.5q15 29 37 65.5t49.5 68.5t61.5 53.5t73 21.5q-57 -38 -106 -106.5t-90 -153t-75.5 -176.5t-63 -176t-52 -152.5t-43 -104.5t-35 -33t-28.5 62z" />
    <glyph glyph-name="O" unicode="O" horiz-adv-x="505" 
d="M84 -1q-27 1 -42.5 13.5t-21.5 31t-5.5 41.5t4.5 45q52 158 100 267.5t91 179t81 105t70.5 46.5t59 2.5t47.5 -26.5t35.5 -40.5t22.5 -39.5q-4 -100 -38 -198t-92.5 -182t-138 -148t-173.5 -97zM343 635q-22 -5 -49.5 -41t-56 -90t-56.5 -119.5t-51 -127.5t-40 -115
t-23 -82q37 0 81.5 22t84.5 54.5t70 69.5t40 66v3q0 2 0.5 2.5t0.5 1.5t-0.5 2t-0.5 2v2q-22 39 -33.5 84t-11.5 91t11 91t34 84zM460 663q-54 -16 -80.5 -55.5t-33.5 -89t2 -102t27 -93.5q107 117 112 280q0 9 0.5 19t-1 18.5t-7.5 15t-19 7.5z" />
    <glyph glyph-name="P" unicode="P" horiz-adv-x="390" 
d="M5 26q0 37 20.5 80t45 86.5t45 85.5t20.5 78q0 14 -6.5 26.5t-14 25t-13.5 25t-6 27.5q0 17 13.5 33t30.5 16q0 -9 1 -21.5t4.5 -24.5t10.5 -21.5t19 -13.5q10 27 30.5 70.5t49 93t62 99t69 89.5t71.5 65t68 25q24 0 41.5 -10t28.5 -26.5t16 -37.5t5 -43
q0 -81 -34.5 -151.5t-91 -124t-128.5 -87t-148 -40.5l-27 -39l-116 -285q-8 -17 -16.5 -22t-21.5 -5q-28 0 -28 27zM512 805q-28 0 -57.5 -20.5t-58.5 -53.5t-55 -74t-46 -81.5t-31.5 -76.5t-11.5 -59q0 -2 0.5 -12t0.5 -13q63 3 118 34.5t95 80.5t63 109.5t23 120.5
q0 28 -6 36.5t-34 8.5z" />
    <glyph glyph-name="Q" unicode="Q" horiz-adv-x="590" 
d="M304 130q-41 -33 -91 -56t-104 -23q-46 0 -68.5 30t-22.5 69q0 46 15.5 98t41.5 105.5t61 105.5t74 99.5t80 87t80 67.5v11q-12 5 -25.5 -2.5t-25 -16t-20 -11t-9.5 12.5q0 31 21 45t48 14q45 0 82.5 -19t65 -50t43 -70.5t15.5 -81.5q0 -48 -16 -93.5t-41 -87.5t-55 -81
t-58 -75q-8 -35 -10.5 -58.5t-2.5 -54.5q0 -18 3.5 -28.5t11 -17t20 -11.5t30.5 -12q0 -1 1 -3v-3q0 -1 1 -1q0 -8 -7 -12.5t-16 -6t-18.5 -1.5h-14.5q-24 0 -41.5 12.5t-29 32t-16 42.5t-2.5 44zM71 156q0 -23 8 -31.5t30 -8.5q26 0 64 10.5t73.5 29t60.5 44.5t25 58
q0 25 -12.5 33t-27.5 12t-27.5 10.5t-12.5 29.5q18 22 38 24.5t39 -7t36 -27t30 -35.5q2 1 7 6l7 7q16 30 36 59.5t37.5 57.5t29.5 54t13 49v7q0 19 -8.5 46.5t-23 52.5t-33.5 43t-39 20q-10 -24 -16 -37.5t-9 -20t-4.5 -8t-2.5 -1.5q-6 0 -8.5 4.5t-4 10.5t-4 10.5
t-8.5 4.5q-16 0 -44 -33.5t-60.5 -85.5t-66 -114t-61 -118t-44.5 -99t-17 -57z" />
    <glyph glyph-name="R" unicode="R" horiz-adv-x="589" 
d="M484 -106q-45 0 -72 21t-41.5 55.5t-19.5 78.5t-6.5 90t-2 89.5t-6.5 76.5t-19.5 52.5t-41.5 16.5q-7 -13 -20.5 -39t-31.5 -59t-37.5 -70t-37.5 -70t-32.5 -59.5t-21.5 -39.5q-8 -14 -11 -21.5t-6.5 -12t-9 -5.5t-16.5 -1q-20 0 -28 6.5t-8 26.5q17 64 45.5 127.5
t63.5 126t74 124t77 121.5q24 36 56 83.5t71.5 90t86 71.5t99.5 29q19 1 35.5 -5.5t27.5 -19.5t16 -30t1 -37q0 -49 -20.5 -94.5t-51.5 -84.5t-66.5 -71t-66.5 -55t-51.5 -36.5t-20.5 -14.5q0 -12 0.5 -45.5t3 -76.5t7.5 -90.5t13.5 -89t22 -70.5t32.5 -36q3 -1 14 -3
t24.5 -4.5t25 -4t14.5 -2.5q2 -1 7 -6t6 -7q-23 -18 -38 -22t-39 -4zM313 462q0 -15 5 -22.5t14 -10.5t20.5 -3.5t24.5 -0.5q40 0 80 28.5t72.5 70t52.5 88.5t20 83v20t-2 18.5t-8 13.5t-19 5q-23 0 -51 -15.5t-57 -40.5t-56.5 -56.5t-48.5 -64t-34 -62.5t-13 -51z" />
    <glyph glyph-name="S" unicode="S" horiz-adv-x="589" 
d="M5 221q0 16 2 35.5t9 35.5t20.5 27t36.5 11q0 -13 -2.5 -24t-6 -22t-6 -23.5t-2.5 -27.5q0 -38 10 -71t30.5 -57.5t51 -38.5t72.5 -14q18 0 44 8t52 19t48 22t31 16q22 12 35 33.5t20 47t9 52t2 47.5q0 34 -6.5 66.5t-14 64.5t-14 64t-6.5 65q11 31 34.5 56.5t54 44
t65.5 29.5t68 13q27 -7 41 -17.5t19.5 -22.5t2.5 -23t-10 -20q-11 24 -28.5 32t-39 5t-43.5 -15t-42 -27t-35 -31.5t-22 -28.5q0 -30 6.5 -58.5t14 -57t14 -57t6.5 -58.5q0 -72 -22.5 -131.5t-65 -102t-103 -65.5t-135.5 -23q-47 0 -83.5 19t-61 50.5t-37.5 71.5t-13 81z
" />
    <glyph glyph-name="T" unicode="T" horiz-adv-x="498" 
d="M134 25q0 23 10 48.5t18 43.5q7 14 22 43.5t34 66.5t40.5 78t40.5 78t34.5 66.5t22.5 43.5q1 1 4.5 7t8 12t8.5 11.5t5 7.5t-1 4t-2 4q-43 -5 -89.5 -13t-92 -18.5t-87.5 -24t-76 -30.5q-11 0 -20 4t-9 16v3q0 1 1 3q2 5 6.5 15.5t6.5 11.5l91 39l609 155
q11 -28 -1.5 -44.5t-39.5 -27t-62.5 -18t-71 -18t-65.5 -28t-45 -46.5q-65 -129 -133.5 -257t-125.5 -261q-1 0 -3.5 -0.5t-3.5 -0.5q-13 0 -23.5 6t-10.5 20z" />
    <glyph glyph-name="U" unicode="U" horiz-adv-x="554" 
d="M18 84q0 38 12 76t28 73q7 16 19.5 46t27.5 67t30.5 76t29 73t23.5 58.5t14 31.5q36 17 46 3t3 -48.5t-26.5 -82.5t-43 -98.5t-47 -98t-37.5 -79.5q-26 -58 -29 -83t14.5 -22.5t53 29.5t86 73.5t114 110t137.5 139.5q17 23 33.5 54.5t32.5 63.5t31 60.5t30.5 45
t30.5 16.5t31 -24q-20 -56 -54 -121t-67.5 -134.5t-57.5 -140t-24 -136.5q0 -18 11 -23.5t26 -5t31.5 2t28.5 -3.5q-5 -9 -8 -18.5t-7 -17.5t-9.5 -13t-16.5 -5q-20 -10 -45.5 1t-45 42t-26.5 81.5t11 119.5l-30 -27t-46 -41t-54 -48.5t-53.5 -48.5t-46 -41t-29.5 -27
q-5 -3 -14 -10t-19.5 -13.5t-21 -11.5t-17.5 -5q-17 0 -28 8t-18.5 21t-10.5 27.5t-3 28.5z" />
    <glyph glyph-name="V" unicode="V" horiz-adv-x="373" 
d="M45 13v8.5t-0.5 13.5t-0.5 13.5v9.5q0 45 6.5 88.5t14 87t14 87t6.5 88.5v16v25.5t-0.5 25.5t-0.5 17q-6 10 -17.5 14t-22.5 8t-19.5 10t-8.5 19q0 9 5 14.5t12.5 8.5t16 3.5t16.5 0.5q48 0 72 -31t24 -79q0 -45 -8 -88.5t-18 -86.5t-18 -86.5t-8 -88.5v-8q4 4 13.5 13
t20 19.5t19.5 20t12 13.5q55 66 99 138.5t81 139.5t69 124.5t64 95.5t66 50.5t75 -10.5q0 -12 -8.5 -17.5t-19.5 -8.5t-22 -6.5t-16 -12.5q-95 -170 -204.5 -335.5t-235.5 -313.5q-11 -9 -19 -11.5t-20 -2.5t-20 2.5t-19 11.5z" />
    <glyph glyph-name="W" unicode="W" horiz-adv-x="689" 
d="M37 57q0 6 1 19t1 15q20 81 33.5 139t22.5 98t14 64t7 37.5t2.5 19t0.5 8.5q0 6 0.5 21t-1.5 30.5t-7.5 27t-18.5 11.5t-21.5 -8.5t-16.5 -17t-17.5 -14.5t-23.5 -1q14 42 35.5 60t63.5 18q25 0 37.5 -9.5t17 -25t4.5 -35.5v-41q0 -38 -6.5 -75t-14.5 -74t-14.5 -74
t-6.5 -75q0 -2 0.5 -9.5t0.5 -9.5l13 13q82 117 131.5 190t78.5 114.5t45 56.5t30 15q13 0 20.5 -7t11.5 -17t5.5 -21.5t1.5 -20.5v-310h13l349 531q27 40 56 52.5t74 -0.5l-103 -104q-84 -129 -141.5 -223.5t-96 -161t-62 -108t-39.5 -65t-28 -32t-28 -8.5q-27 0 -39.5 17
t-17 40.5t-4 48.5t0.5 41q0 36 0.5 65.5t2 58.5t4 60.5t7.5 72.5q-90 -137 -147.5 -222t-93.5 -132t-56.5 -63.5t-37.5 -16.5q-27 0 -35 8.5t-8 28.5z" />
    <glyph glyph-name="X" unicode="X" horiz-adv-x="687" 
d="M71 23q0 2 1 3q16 17 38 40.5t45.5 49.5t46 53t38.5 51q3 5 8 15t5 12q-16 44 -23.5 94.5t-10.5 101.5t-3.5 100.5t-1.5 91.5q-11 22 -35.5 25t-53 -2.5t-56 -13.5t-43.5 -9h-7q8 25 30.5 43.5t52 29t62 11.5t60 -8.5t46.5 -31t22 -56.5l12 -312q18 12 40 36t45.5 55
t48 66.5t47.5 69t43 62.5t36 48q15 21 26 27t18 2.5t9 -15t0 -26t-9 -28.5t-18 -24q-62 -81 -104.5 -138t-70 -95t-42.5 -60t-22 -33.5t-8 -15t-1 -4.5q0 -38 15.5 -67t41 -50.5t58.5 -36.5t67.5 -24.5t68 -14.5t61.5 -6q-12 -12 -14.5 -20t-4 -13t-6.5 -7t-20 -2
q-91 0 -171 39.5t-134 105.5q-4 6 -13.5 16t-11.5 11q-7 2 -19.5 -10t-29 -30.5t-35 -41t-37.5 -42t-38 -32.5t-36 -13q-8 0 -10.5 7t-2.5 12v4z" />
    <glyph glyph-name="Y" unicode="Y" horiz-adv-x="602" 
d="M-245 -748q80 23 150.5 83.5t132 144t114 181.5t96 197t78.5 191t61.5 161.5t37 92.5t35.5 55q-25 -27 -63.5 -64t-83.5 -70t-93 -56t-91 -23q-28 0 -45.5 12.5t-27.5 32t-13.5 44t-3.5 49.5q0 21 11 60.5t29 86.5t40 96t45 89t43.5 65.5t34.5 25.5q13 0 23 -6t10 -20
q0 -19 -10 -34.5t-31 -18.5q-14 -16 -31.5 -46.5t-34.5 -68t-32 -78.5t-22.5 -78t-6.5 -67t16 -45t45 -12t80 32q51 37 96 81t83 89t68 87.5t52 77t35 57.5t17 29q11 16 19 26.5t17.5 16.5t22.5 8t35 2q-8 -27 -22 -59.5t-38.5 -84t-61.5 -131t-89.5 -201t-123 -292.5
t-162.5 -406q-21 -42 -59.5 -93t-84 -99.5t-94 -88.5t-90 -61t-72.5 -16t-41 46z" />
    <glyph glyph-name="Z" unicode="Z" horiz-adv-x="873" 
d="M582 -1q-37 2 -70.5 11.5t-66.5 22.5t-66 26.5t-68.5 23t-75 13t-85.5 -4.5q-13 -3 -27.5 -14t-27.5 -24t-23 -24.5t-14 -15.5q-2 0 -6.5 -0.5t-6.5 -0.5q-27 0 -27 27q0 2 0.5 6.5t0.5 6.5q64 63 128 126.5t120.5 131.5t101 143.5t69.5 162.5q-40 -3 -85.5 -8
t-90.5 -15.5t-86 -28t-72 -46.5q-15 0 -18 11.5t-3 22.5q0 9 0.5 13.5t3 7t8 4.5t16.5 7q38 15 80 33t85.5 33.5t88 26.5t89.5 11h9.5t13.5 -0.5t13.5 -0.5h8.5q21 -8 24 -21t3 -29q0 -30 -6 -52.5t-21 -53.5q-31 -44 -68 -94.5t-77.5 -102.5t-82.5 -101.5t-83 -90.5
q15 1 43 2.5t60.5 1t64 -4t53.5 -11.5q25 -10 45.5 -21.5t40 -21t40.5 -16t47 -6.5q45 0 88 11t85 23.5t81.5 23.5t76.5 11v-17q0 -1 -10.5 -7.5t-24.5 -15t-29.5 -16.5t-25.5 -13q-62 -29 -118.5 -47.5t-122.5 -18.5z" />
    <glyph glyph-name="bracketleft" unicode="[" horiz-adv-x="642" 
d="M18 104q5 12 13.5 21.5t20 29t28 54.5t38 99t48.5 162t61 243q2 14 5 34.5t8.5 41t15 39t23.5 27.5q7 0 24 0.5t36.5 1t37 0.5h24.5h32.5t40 -0.5t34.5 -1t17 -0.5q9 0 27 -1t35.5 -5t30.5 -13t13 -25q0 -15 -7 -31t-27 -16q-1 0 -3.5 0.5t-3.5 0.5q-5 4 -32.5 7.5
t-64.5 4.5t-78 -1.5t-73.5 -9.5t-51.5 -20t-11 -33q-45 -140 -83 -284t-73 -287q0 -1 -0.5 -8t-0.5 -11v-8t1 -10.5t4 -9.5t9 -4h285q11 0 12.5 -10t1.5 -16q0 -2 -0.5 -6.5t-0.5 -6.5q-63 -22 -131 -37.5t-134 -15.5q-26 0 -52.5 4t-48.5 15.5t-36 32t-14 53.5z" />
    <glyph glyph-name="backslash" unicode="\" horiz-adv-x="265" 
d="M12 713q0 10 3.5 25t17.5 15h3.5t2.5 -1q3 -2 7 -5.5t8.5 -8l8 -8t3.5 -4.5l181 -674v-52q-41 14 -52 52l-182 648q-1 2 -1 5v8z" />
    <glyph glyph-name="bracketright" unicode="]" horiz-adv-x="660" 
d="M44 39q0 4 5 14t8 12q9 11 44 16t82.5 6t101.5 -0.5t100 -2.5t77.5 0t35.5 7q10 22 12.5 47.5t2 51t-2 50t0.5 45.5q2 20 6.5 61.5t10.5 94t13.5 110.5t14 110t11.5 93.5t8 61.5v27h-311q-6 0 -15 5t-17 11.5t-14 14.5t-6 14q0 5 4.5 11t11 11t13 8t11.5 3h386l-76 -752
v-143q0 -5 -9.5 -15t-15.5 -11q-2 0 -10 1.5t-17 4t-16.5 5t-9.5 2.5q-19 6 -53.5 4.5t-76.5 -5t-88.5 -7.5t-89 -3t-77.5 9t-55 28z" />
    <glyph glyph-name="asciicircum" unicode="^" horiz-adv-x="395" 
d="M39 757q0 8 9.5 25.5t24.5 39t33.5 44t36 40.5t32.5 30t23 12q16 0 33.5 -10t35 -26.5t33.5 -36t28 -39t19.5 -36t7.5 -25.5q-1 -21 -11.5 -19t-25.5 17t-32 37.5t-32 43t-26 32.5t-13 6q-7 0 -9.5 -2t-7.5 -7q-21 -9 -38.5 -26t-31.5 -36t-26 -37t-22.5 -29t-20.5 -12
t-20 14z" />
    <glyph glyph-name="underscore" unicode="_" horiz-adv-x="472" 
d="M66 82q15 0 54 -0.5t83.5 -1t84 -1.5t54.5 -1q5 0 18 -2t27.5 -4t27.5 -4t18 -3q1 -2 1 -10v-10v-8t-1 -10.5t-4 -9.5t-9 -4h-337q-2 0 -7 5.5t-5 7.5q-1 3 -2 11t-1.5 17t-1 17t-0.5 11z" />
    <glyph glyph-name="grave" unicode="`" horiz-adv-x="237" 
d="M90 840q14 -8 34 -29.5t39 -46.5t34 -48t19 -34q-2 -12 -17.5 -5t-35.5 24.5t-40.5 41t-34 45t-15 36.5t16.5 16z" />
    <glyph glyph-name="a" unicode="a" horiz-adv-x="432" 
d="M18 65q9 57 34 105t57.5 83.5t70.5 58.5t74 29.5t66.5 -3.5t49.5 -40q0 -23 -10.5 -44t-23 -42t-23 -43t-10.5 -47q0 -26 11.5 -41.5t40.5 -15.5q24 0 46.5 7t45.5 7q4 0 13.5 -0.5t12.5 -0.5q-12 -17 -31 -29t-40 -20.5t-43.5 -12.5t-41.5 -4q-18 0 -32 8t-24 21
t-15.5 29.5t-5.5 32.5q-15 -17 -32.5 -35.5t-37 -33.5t-42 -25t-46.5 -10q-26 0 -45 19.5t-19 46.5zM84 96q0 -8 0.5 -18t12.5 -13q25 6 57 26.5t60 48t47 59t19 60.5q0 2 -0.5 6.5t-0.5 6.5q-34 0 -69 -14t-63 -38.5t-45.5 -56.5t-17.5 -67z" />
    <glyph glyph-name="b" unicode="b" horiz-adv-x="447" 
d="M5 91q0 13 6.5 29.5t20.5 21.5q2 1 5.5 1.5t6.5 1.5q4 1 7 1v-55q6 6 18.5 22t26 34.5t25 35.5t15.5 25l233 454l5.5 6t13 8.5t16.5 -2.5t17 -26l-142 -286v-12q28 -4 52 -11.5t41.5 -21.5t27.5 -34.5t10 -49.5q0 -49 -25.5 -91.5t-65.5 -74t-88.5 -50t-93.5 -18.5
q-20 0 -43 5.5t-42.5 17t-33 29t-13.5 40.5zM290 287q-14 0 -30.5 -13t-32.5 -33.5t-31 -46t-26.5 -50.5t-18.5 -47t-7 -35q28 0 63 13t65.5 34.5t51 50t20.5 59.5q0 27 -11 47.5t-43 20.5z" />
    <glyph glyph-name="c" unicode="c" horiz-adv-x="348" 
d="M253 362q-23 -3 -53 -28.5t-57.5 -62t-46.5 -79t-19 -78.5q0 -29 15 -40.5t43 -11.5q30 0 58.5 7.5t57 16t57 16t58.5 7.5q0 -14 -4 -23.5t-12 -20.5q-52 -25 -107 -45.5t-115 -20.5q-18 0 -38 6.5t-37 18.5t-28.5 29t-11.5 38q0 45 13 87.5t36 80.5t55.5 70t70.5 56v1
q15 9 34.5 17.5t36.5 10t28.5 -8t11.5 -35.5q0 -12 -2 -31.5t-11 -27.5q-8 -5 -21 -9q-6 -2 -12 -3v63z" />
    <glyph glyph-name="d" unicode="d" horiz-adv-x="520" 
d="M12 99q0 50 28.5 98t72.5 85t97 59.5t101 22.5q19 0 36 -7t36 -7h6q5 11 19.5 39t31 59t31.5 58.5t22 38.5q11 19 30 47.5t37.5 55.5t32.5 46t16 19l39 -39q0 -2 -7.5 -18t-19.5 -41.5t-27.5 -56.5t-31.5 -62t-30.5 -59.5t-25.5 -47.5q-31 -47 -62.5 -95.5t-50 -90
t-18 -72.5t33.5 -43q60 11 90 9t37.5 -10.5t-2.5 -20t-31.5 -20.5t-49.5 -12t-56 6t-51 33t-35 69l-155 -129l-7.5 -2t-18 -4t-21.5 -4t-18 -3h-6q-23 0 -37.5 8.5t-22.5 22t-10.5 31.5t-2.5 37zM77 110q0 -6 -0.5 -14t1 -14.5t6 -11.5t13.5 -5q13 0 31.5 9.5t36.5 22.5
t33.5 26t22.5 19q7 7 26 25.5t39.5 39.5t38.5 39t25 26v3q0 2 0.5 2.5t0.5 1.5q0 9 -5.5 13.5t-13 6t-15.5 1t-13 -0.5q-36 0 -76 -15t-73.5 -40.5t-55.5 -60t-22 -73.5z" />
    <glyph glyph-name="e" unicode="e" 
d="M16 52q-17 38 -15 74.5t16.5 69t38 59t50.5 46t54.5 29.5t48.5 8.5t33 -15.5t8 -43q0 -39 -24.5 -68t-54 -52t-54 -41.5t-24.5 -34.5q0 -9 10.5 -14t24.5 -7.5t28 -3.5t20 -2q94 20 141 24.5t59 -1t-4.5 -17t-50.5 -24t-79 -22.5t-89 -11.5t-81.5 8.5t-55.5 38zM191 280
q-20 0 -38 -11t-32.5 -27.5t-24.5 -36t-15 -36.5q2 -1 3 -1h3q14 0 32 12t34 29.5t27 36.5t11 34z" />
    <glyph glyph-name="f" unicode="f" horiz-adv-x="464" 
d="M-228 -318q56 0 102 32t83 79.5t64 101t44 96.5q7 18 18 49.5t21.5 62t18 54.5t7.5 28v4q-17 14 -34 10.5t-32.5 -10t-28.5 -8t-23 17.5q0 17 9 27t23 16t31 9t33 7t29 11t19 20l103 233q13 28 36 52.5t52 41.5t61 27t62 10q43 0 59 -23t16 -69q0 -9 -6.5 -23t-16.5 -27
t-22 -22t-23 -9q0 13 5 24.5t10.5 22.5t10.5 22.5t5 25.5q0 16 -3 27t-25 11q-29 0 -58.5 -14.5t-57 -39t-52 -56t-42 -64.5t-28 -65.5t-10.5 -58.5q0 -2 0.5 -6.5t0.5 -6.5q19 6 43.5 14t51 14.5t53 11t50.5 4.5q0 -16 -16 -29t-40.5 -24t-54 -21t-55.5 -19.5t-45.5 -20
t-24.5 -21.5q-5 -30 -21.5 -83t-42.5 -115t-59.5 -126t-73 -116t-83 -85t-89.5 -33q-6 0 -15.5 1t-18 4t-14.5 9t-6 15z" />
    <glyph glyph-name="g" unicode="g" horiz-adv-x="451" 
d="M-176 -531q0 57 19.5 102t51.5 83.5t73 71t84 63t84 61.5t73 66t51.5 76t19.5 91v9.5t-1 9.5q-7 -6 -27 -17.5t-42.5 -24t-43.5 -22.5t-30 -13q-1 0 -7.5 -1t-15 -2t-16.5 -1.5t-13 -0.5q-45 8 -60 31.5t-8 55.5t31.5 68.5t59 70t75 60t79 38t71 5t50.5 -39.5
q6 -42 0 -78.5t-16 -71.5t-20 -70.5t-12 -77.5h9q6 6 20.5 21t31 31.5t31.5 31t21 20.5q3 3 12.5 8t13.5 5v-3v-2q0 -1 1 -1q0 -36 -20.5 -66t-49.5 -56t-60 -48.5t-52 -43.5q-17 -35 -37 -87.5t-44 -112t-53.5 -121t-66 -113.5t-80.5 -89.5t-98 -48.5q-26 0 -43.5 13
t-27.5 32.5t-14 43t-4 44.5zM-123 -585q8 -19 19 -23t25 -4q26 0 57 27t62.5 69.5t60.5 94.5t51.5 101t36 89.5t13.5 60.5q0 2 -0.5 6.5t-0.5 6.5q-3 -2 -13.5 -6.5t-12.5 -6.5q-42 -31 -94.5 -68.5t-98 -82.5t-76.5 -97.5t-31 -113.5v-11t0.5 -16t1 -15.5t0.5 -10.5z
M318 297q-16 0 -42 -10.5t-55.5 -28.5t-59.5 -41t-54.5 -48t-39.5 -50t-15 -46q21 0 51 8.5t62.5 23t64.5 34t57.5 41.5t41.5 45t16 45q0 27 -27 27z" />
    <glyph glyph-name="h" unicode="h" horiz-adv-x="473" 
d="M354 -1q-25 -4 -45.5 8.5t-32.5 33t-14 45t10 44.5q44 57 60 90.5t11.5 47t-25 11t-49.5 -18t-62.5 -40.5t-62.5 -55t-50.5 -62.5t-27.5 -63.5q-10 -6 -17 -9.5t-16 -3.5q-15 0 -18 10t-3 21q0 25 15.5 51.5t36 50t39.5 43t27 31.5q25 41 50 88.5t50 97t51.5 98
t55.5 92.5q5 8 8.5 11t10.5 3q8 0 12 -3t8 -11q0 -4 -1.5 -13t-3 -19.5t-4 -19.5t-3.5 -12q-6 -12 -20 -42t-30.5 -64t-31.5 -66.5t-22 -48.5q15 10 27 15.5t23.5 8t24 3t27.5 0.5q36 -9 47.5 -27t7 -41.5t-19.5 -51.5t-31.5 -56.5t-29.5 -55t-12 -48.5q0 -9 4 -13t10 -6
t13 -2h13q21 0 40.5 6.5t38.5 14.5t38.5 14.5t40.5 6.5q0 -19 -19 -36t-45.5 -29.5t-55.5 -20t-48 -7.5z" />
    <glyph glyph-name="i" unicode="i" horiz-adv-x="237" 
d="M5 65q0 14 3 24.5t11 27.5q7 10 25.5 38t39 59t39 58.5t25.5 38.5q9 13 14 14t19 1q9 0 19.5 -1t13.5 -14q-14 -34 -37.5 -64.5t-46 -60.5t-39.5 -61.5t-17 -67.5q4 0 12.5 -1t18.5 -2t18.5 -2t12.5 0q6 1 20.5 4.5t31 7.5t31.5 8t21 6q0 -2 0.5 -6.5t0.5 -6.5
q0 -20 -18.5 -33t-43 -20.5t-50 -10t-39.5 -2.5q-15 0 -30.5 3.5t-27.5 11.5t-19.5 20.5t-7.5 30.5zM296 651q13 0 24 -1t19 -5t13 -12t5 -22v-13t-1.5 -13.5t-5.5 -11t-13 -4.5q-14 0 -22.5 10t-12.5 23.5t-5 27.5t-1 21z" />
    <glyph glyph-name="j" unicode="j" horiz-adv-x="269" 
d="M-357 -455q0 42 14 80t36 72t50 64.5t56 57.5q10 10 32 29.5t50 44t59 51t59.5 50.5t51 43t33.5 28q3 10 11 30t18.5 46t21.5 54t21.5 53.5t19 45.5t12.5 30q5 12 12.5 25.5t17 25.5t22 20t27.5 8q0 -32 -10.5 -71t-25.5 -77t-30.5 -71t-25.5 -54q2 0 6.5 -0.5t6.5 -0.5
q26 0 49.5 7t49.5 7q8 0 17.5 -1t12.5 -12q-11 -22 -34 -31t-49.5 -15t-50 -15t-33.5 -30q-6 -12 -18.5 -37.5t-28 -57t-33 -67t-32.5 -67.5t-27 -58t-17 -38q-17 -36 -36.5 -85t-47 -93.5t-65.5 -75.5t-91 -31q-25 0 -45.5 9.5t-35 25.5t-22.5 37t-8 44zM-306 -439
q0 -15 1.5 -29t7 -25.5t16 -18.5t29.5 -7q37 0 70 26.5t59.5 63t46.5 76.5t31 67q7 17 16 40.5t19 49.5t20 51.5t17.5 45.5t12.5 33t5 14v26q-2 -2 -8 -5.5t-12 -7.5t-11.5 -7.5t-7.5 -5.5q-8 -7 -25.5 -23.5t-39 -36.5t-45.5 -42.5t-45.5 -43t-39 -37t-25.5 -24.5
q-14 -23 -30 -43t-29.5 -41t-23 -44t-9.5 -52zM343 772q0 7 5 12.5t12.5 10t15.5 7t13 2.5q15 0 18 -11.5t3 -22.5q0 -19 -10.5 -32.5t-30.5 -13.5q-9 0 -14.5 4.5t-8 12t-3 15.5t-0.5 16z" />
    <glyph glyph-name="k" unicode="k" horiz-adv-x="479" 
d="M150 142q-12 -16 -20 -36t-18 -38t-24 -30t-37 -12q-19 0 -26 6.5t-7 26.5q0 24 13.5 53t32.5 56.5t39 51.5t33 39l185 400q7 17 25.5 32t38.5 15v-33l-106 -245v-24q17 0 32 5.5t30 12.5t31.5 12.5t36.5 5.5q18 -12 19 -29.5t-9 -38t-27.5 -41.5t-36.5 -40.5
t-36.5 -34.5t-26.5 -23q-15 -12 -27.5 -16.5t-21.5 -8.5t-13.5 -12t-4.5 -27q0 -28 15 -45.5t39.5 -27.5t55 -13.5t61.5 -3.5t59 2.5t48 5.5l12 -12q-11 -15 -33.5 -28.5t-49 -24t-52.5 -17t-43 -6.5q-32 0 -62 10.5t-55 29.5t-43.5 45.5t-26.5 57.5zM347 367q-9 0 -27 -7
t-36 -18t-31 -24t-13 -26v-7q7 3 24.5 10t36 17.5t32.5 24.5t14 30z" />
    <glyph glyph-name="l" unicode="l" horiz-adv-x="255" 
d="M6 91q0 7 1.5 21.5t3.5 28.5t4 25.5t4 14.5l182 364q4 8 15.5 22.5t25 30t27 29t22.5 21.5q7 -2 10 -7t4 -11.5t0.5 -12.5t-0.5 -10v-14t-1 -9q-10 -27 -31 -64t-47 -79t-53.5 -87.5t-50 -90t-37 -85.5t-14.5 -75q0 -18 10.5 -28.5t22.5 -18.5t22.5 -16t10.5 -22
q0 -9 -8 -13.5t-19 -4.5q-42 0 -73 23.5t-31 67.5z" />
    <glyph glyph-name="m" unicode="m" horiz-adv-x="683" 
d="M493 -1q-19 0 -34.5 7t-25.5 20t-14 29.5t1 35.5q0 32 11.5 59.5t26 53t26 51t11.5 54.5q-22 0 -47 -14t-50.5 -37t-50 -51.5t-46 -57t-37 -54.5t-23.5 -43q-2 -1 -10 -1.5t-10 -0.5q-16 -8 -19.5 0.5t0 26.5t11.5 40.5t15.5 43t11.5 34t1 13.5q3 4 7 13t8 19t7 18.5
t3 13.5q0 9 -6.5 11.5t-12.5 2.5q-18 10 -38.5 -11.5t-44 -61t-51 -90t-60.5 -97.5q-23 0 -35 6t-12 30q8 11 24 41.5t36 67.5t42.5 75t43 64.5t37 36t26.5 -9.5q17 11 37.5 19t41.5 8q14 0 23.5 -8.5t15 -21t8.5 -26t3 -23.5q11 7 36.5 24.5t55 35.5t58 31.5t46.5 13.5
q16 0 27.5 -11.5t11.5 -28.5q-36 -88 -56.5 -141t-27 -82.5t0 -42t23.5 -19.5q27 0 52 9t49.5 20t49.5 20t53 9q0 -11 -5.5 -20.5t-16.5 -14.5q-8 -5 -28.5 -15.5t-44.5 -22t-45.5 -22.5t-30.5 -15q-20 -9 -30.5 -11.5t-28.5 -2.5z" />
    <glyph glyph-name="n" unicode="n" horiz-adv-x="445" 
d="M25 45v14t1.5 9.5t4.5 9.5t8 13q8 14 30 49t47 74t47.5 74l31.5 49q1 1 5.5 1h6.5h7t6 -1t4.5 -5t8 -8.5t8 -8.5t5.5 -4q9 0 19 6t20.5 13.5t21.5 13.5t23 6q13 0 24 -6t19 -15t12.5 -20t4.5 -22q0 -23 -6.5 -44t-14.5 -41.5t-14.5 -41t-6.5 -42.5t5 -31.5t28 -9.5
q27 0 51.5 8t50.5 8q0 -24 -14.5 -40t-36 -25.5t-46 -13t-44.5 -3.5q-38 0 -55.5 21.5t-17.5 57.5q0 24 8.5 45t19 41t19.5 40t9 43q0 6 -2 16t-13 10q-33 0 -59.5 -21t-48 -53t-39 -69t-33 -69t-29.5 -53t-29 -21q-21 0 -34 13t-13 33z" />
    <glyph glyph-name="o" unicode="o" 
d="M18 84q0 4 0.5 16.5t0.5 16.5q32 73 82 135t113 110q2 0 6.5 1.5t6.5 1.5q27 0 44.5 -11.5t28 -30t14.5 -41t4 -43.5q0 -39 -18 -81.5t-48.5 -78t-69.5 -58t-81 -22.5t-62.5 22.5t-20.5 62.5zM96 96q0 -11 9 -15t18 -4q25 0 48.5 13.5t42 34t29.5 45.5t11 48
q0 11 -1.5 24.5t-6.5 24t-15.5 16.5t-29.5 2q-14 -3 -32 -26t-34.5 -53.5t-27.5 -61t-11 -48.5z" />
    <glyph glyph-name="p" unicode="p" horiz-adv-x="512" 
d="M-112 -280q0 1 0.5 4t0.5 4q1 3 3 8.5t4 11.5t4 11.5t3 7.5q6 14 20 44.5t32 69t37.5 80.5t37.5 80.5t32.5 69t21.5 45.5q13 21 36.5 49t52.5 57t62.5 56.5t66 49t63.5 35t55 13.5q36 0 51 -13t15 -53q0 -43 -16.5 -85.5t-44.5 -80.5t-65.5 -69t-79 -51t-85.5 -27.5
t-85 2.5l-13 -13l-130 -324q-3 -9 -17 -11.5t-23 -2.5q-13 0 -26 8.5t-13 23.5zM356 207q47 50 61 79.5t6 41.5t-32 9t-54 -17t-60.5 -37t-50.5 -50q-9 -10 -22 -26.5t-25.5 -33t-21.5 -29.5t-9 -15v-21q69 0 118 20.5t90 78.5z" />
    <glyph glyph-name="q" unicode="q" horiz-adv-x="467" 
d="M12 -611q0 55 12 110.5t30.5 110.5t42 107.5t46.5 100.5v26h-54q0 19 9 30.5t23 18.5t30.5 10.5t30.5 5.5l65 117v10q-17 0 -33.5 -6t-33 -12.5t-34 -12.5t-36.5 -6q-45 0 -65 21.5t-20 64.5q6 39 32 82t64.5 80.5t84 63.5t90 31t83 -16.5t63.5 -80.5q0 -23 -8 -45
t-20.5 -42.5t-29 -38t-34.5 -29.5l-103 -207q0 -1 -0.5 -3t-0.5 -4q0 -13 6.5 -25t15 -24l17 -24t13.5 -24q23 -66 18 -132t-31 -127.5t-70 -114.5t-98 -92q-10 -9 -19 -11.5t-20 -2.5q-19 0 -31.5 8t-20 21t-11 29t-3.5 32zM78 -628q28 0 53 17t47 45t39.5 62.5t30 70
t19 67.5t6.5 55q0 38 -18 71.5t-47 57.5zM90 96q0 -19 7 -26t27 -7q23 0 63.5 17.5t80 44t68.5 58.5t29 61t-14.5 41.5t-46.5 12.5q-16 0 -37.5 -10t-45.5 -27t-47.5 -38.5t-42 -44t-30 -44t-11.5 -38.5z" />
    <glyph glyph-name="r" unicode="r" horiz-adv-x="389" 
d="M232 77q0 30 12.5 55.5t27.5 48.5t27.5 46t12.5 49q0 6 -0.5 14.5t-2 16.5t-6 13.5t-11.5 5.5q-1 0 -3.5 -0.5t-2.5 -1.5q-14 -19 -33.5 -42.5t-41.5 -46.5t-43 -44t-38 -35q-12 -11 -32.5 -30t-41 -37.5t-36 -32.5t-17.5 -14l-46 39q9 0 17.5 4t16.5 9q60 40 108.5 92
t95.5 112q2 3 10.5 17.5t18.5 33l20 37t15 29.5q6 13 7.5 21t3 12.5t5.5 6.5t17 2q2 0 9.5 -1t9.5 -2q13 -27 23 -48t17 -39.5t10.5 -37.5t3.5 -42q-13 -33 -29 -67.5t-27 -65.5t-13.5 -56t11 -39.5t46 -15.5t92.5 17q16 -8 3 -19.5t-39.5 -21.5t-58 -16.5t-52.5 -3.5
q-19 0 -31.5 6.5t-20 17.5t-11 25t-3.5 29z" />
    <glyph glyph-name="s" unicode="s" horiz-adv-x="479" 
d="M12 111q0 19 5.5 33t28.5 14q2 0 9.5 -0.5t10.5 -1.5q-1 -47 15 -70.5t60 -23.5q36 0 71 11t63.5 32.5t46 52.5t17.5 70q0 24 -16.5 34t-36.5 16t-36.5 13.5t-16.5 26.5q0 23 28 44t66 37.5t75.5 26t57.5 9.5q0 -29 -12.5 -41t-30.5 -19t-36.5 -13.5t-30.5 -24.5
q16 -13 26.5 -23.5t16.5 -22.5t8 -26.5t2 -34.5q0 -52 -22.5 -94.5t-58.5 -73t-82 -47t-94 -16.5q-26 0 -50.5 6.5t-43 20.5t-29.5 35t-11 50z" />
    <glyph glyph-name="t" unicode="t" horiz-adv-x="264" 
d="M6 97q0 29 11 58t26 57.5t30.5 56.5t23.5 55q-19 -11 -32.5 -12.5t-32.5 -1.5q-2 0 -12.5 0.5t-13.5 0.5q6 22 22 39.5t36.5 30t43 21t40.5 13.5q30 47 49 94.5t38.5 93t46 87t71.5 76.5l5 -38l-125 -293q11 3 27 6t32.5 6t32 5.5t26.5 5.5q1 0 6 0.5t8 0.5q14 0 23 -5
t15 -22q-68 -20 -123 -42t-95.5 -57.5t-66 -90t-35.5 -139.5q0 -18 2 -33t25 -18q23 0 43 9t39 19.5t38.5 19.5t42.5 9q0 -24 -21 -44t-50.5 -35t-60.5 -23t-51 -8t-36 8t-26.5 21.5t-16 31.5t-5.5 37z" />
    <glyph glyph-name="u" unicode="u" horiz-adv-x="486" 
d="M18 50q0 15 9 42.5t23.5 59.5t33 65t37.5 60t36 44t30 17q28 0 28 -27q0 -12 -4.5 -20t-10.5 -15t-13 -13.5t-12 -15.5q-9 -15 -22 -41t-25.5 -50.5t-21.5 -43.5t-9 -21v-13q39 7 75 33.5t68.5 62.5t62 75.5t55.5 73t49 55.5t43 22q0 -37 -15 -67t-32.5 -59t-32.5 -59.5
t-15 -68.5q0 -16 19.5 -28.5t45 -21t49.5 -13.5t33 -6v-26q-23 -1 -57 -0.5t-68 7.5t-61.5 23.5t-36.5 48.5q-26 -17 -50 -40t-49.5 -43t-53.5 -34t-61 -14q-20 0 -33.5 17t-13.5 34z" />
    <glyph glyph-name="v" unicode="v" horiz-adv-x="401" 
d="M12 63q0 3 0.5 8.5t0.5 6.5q3 30 7 76.5t8.5 89.5t7.5 74.5l3 31.5l27 26q17 -5 25 -13.5t11 -18.5t3 -22v-24q0 -42 -7.5 -81.5t-7.5 -80.5q0 -2 0.5 -9.5t0.5 -9.5l246 259q1 1 5.5 1h6.5q10 0 19 -4t9 -17q0 -1 -0.5 -1.5t-0.5 -1.5v-3q-5 -8 -17.5 -26t-27 -39
t-27.5 -39.5t-18 -25.5q-17 -21 -39.5 -50t-48 -58.5t-53 -56t-54.5 -42.5q-5 -3 -14.5 -8t-10.5 -5q-11 0 -20.5 6.5t-17 16.5t-12 20.5t-4.5 19.5z" />
    <glyph glyph-name="w" unicode="w" horiz-adv-x="662" 
d="M13 65q4 41 22.5 75.5t44 66t53 60t49.5 57.5q17 0 22.5 -7.5t5.5 -18.5q-8 -9 -25 -32.5t-34.5 -50.5t-31 -51t-15.5 -34q-8 -30 0.5 -37.5t28 0t46.5 27t55.5 43.5t55.5 50t47 46h44q0 -17 -5 -32.5t-11 -30.5t-11 -30t-5 -31q0 -23 14.5 -28t33.5 -5q26 0 54.5 10.5
t52.5 29t39.5 43t15.5 53.5q0 26 -7.5 47.5t-7.5 47.5q0 31 34 31q15 0 26 -13t18.5 -31t11 -37t3.5 -31q0 -52 -25 -92t-64 -67t-86.5 -41t-92.5 -14q-38 0 -60 27.5t-23 64.5q-29 -9 -53 -30.5t-48 -44t-50 -39.5t-57 -17q-8 0 -19.5 7t-22 17t-17.5 21.5t-6 20.5z" />
    <glyph glyph-name="x" unicode="x" horiz-adv-x="512" 
d="M175 208q11 11 12 24t1 27q0 62 -24.5 85.5t-84.5 23.5q0 9 9.5 14t22 6.5t23.5 1.5h14q24 0 43 -10.5t32.5 -22.5t22 -22.5t12.5 -10.5q9 0 17.5 4t15.5 9q7 6 26 20.5t39.5 31t39 31t25.5 20.5q3 1 10.5 3t15.5 4.5t15.5 4.5t10.5 2h3q1 0 2 0.5t2 0.5q8 0 14 -7t6 -15
q0 -10 -10 -13.5t-23.5 -5.5t-26.5 -4t-19 -9l-142 -168v-130h133q0 -21 -11 -32t-27 -15.5t-35 -5t-34 -0.5q-46 0 -75 31t-43 75q-11 -18 -29.5 -43.5t-41 -49t-48 -40t-49.5 -16.5v45z" />
    <glyph glyph-name="y" unicode="y" horiz-adv-x="534" 
d="M-55 -302q32 52 74 92.5t86.5 76.5t88.5 70t81.5 73t64.5 86.5t37 110.5q0 2 -0.5 6.5t-0.5 6.5q-23 -27 -55.5 -61t-70 -64t-78.5 -50t-80 -20q-10 0 -25.5 1.5t-30.5 6.5t-26 14t-11 24q0 13 7 40t19 60t27 67t32 62t33.5 46t30.5 18t24 -6t10 -20q0 -25 -18 -50
t-39 -53.5t-39 -61.5t-18 -75q66 0 119 27.5t96 68.5t76 89t58.5 89t44 68.5t31.5 27.5q19 0 22.5 -11.5t3.5 -28.5q-9 -31 -25 -72.5t-32.5 -87t-30 -90.5t-17.5 -82q0 -1 0.5 -3t0.5 -3q18 6 34 21t31.5 30.5t31.5 28t33 12.5q1 0 7.5 -14t-0.5 -34q-9 -7 -32.5 -24
t-49.5 -35.5t-49 -36t-32 -26.5q-14 -14 -29 -40t-30 -58.5t-29.5 -68.5t-28.5 -70.5t-27.5 -64t-24.5 -48.5q-5 -8 -20.5 -31.5t-34 -50.5t-36 -51.5t-26.5 -34.5q-4 -5 -22 -23.5t-40.5 -41t-45 -44.5t-34.5 -33q-12 -7 -32 -17.5t-41.5 -17.5t-42 -9t-33.5 8.5t-15.5 35
t11 69t46.5 112.5t91 165zM259 -87q-2 0 -6.5 -1.5t-6.5 -2.5q-2 -2 -9 -7t-15.5 -11t-16 -12t-10.5 -9q-28 -20 -64 -56.5t-74.5 -81t-75.5 -94t-66.5 -95t-47.5 -83.5t-19 -61t19 -27t68 19q10 9 28.5 26.5t37 36t33.5 34t18 19.5q5 7 16 22t24 34t27 40t26.5 40.5
t22 34.5t13.5 23q9 16 22.5 45.5t25.5 61t21 60.5t9 45z" />
    <glyph glyph-name="z" unicode="z" horiz-adv-x="506" 
d="M25 45v4t1 3q29 32 61.5 61.5t68.5 55.5l220 259h-14q-21 0 -41 -4.5t-40 -9.5t-40 -9.5t-41 -4.5q-29 4 -38.5 12t-5.5 17.5t18 19.5t33 17.5t40 11t38 1.5q39 10 67.5 12.5t64.5 2.5q29 0 46 -10.5t17 -43.5q0 -7 -17.5 -29.5t-44.5 -54t-59.5 -67.5t-63 -70
t-54.5 -61.5t-34 -40.5q1 -2 6 -7l7 -7q27 -9 60.5 -12.5t67.5 -4t65 1t53 3.5q8 -4 11 -8.5t3 -10.5q0 -21 -19 -31t-43 -13.5t-47 -3t-31 0.5q-24 0 -46 4t-44 9.5t-43.5 9.5t-44.5 4q-16 0 -27.5 -8.5t-22 -18t-20 -18t-21.5 -8.5q-17 0 -31.5 15t-14.5 31z" />
    <glyph glyph-name="braceleft" unicode="{" horiz-adv-x="499" 
d="M17 27q0 35 14.5 66.5t36.5 59.5t48 53.5t48 48.5t36.5 43t14.5 39q0 18 -10 32t-22.5 27.5t-22.5 27.5t-10 30q0 22 18 32.5t40 17.5t40 16.5t18 30.5v7l-65 142q0 1 2.5 11.5t6.5 25t9 30t8 24.5q7 20 21.5 43t33.5 42.5t42 32.5t47 13q23 -13 24.5 -26t-9 -26.5
t-29 -28.5t-36.5 -33t-31 -39.5t-12 -48.5q0 -2 0.5 -10t0.5 -10q4 -7 14 -25t20 -39t18.5 -39.5t11.5 -26.5q1 0 1.5 -9t0.5 -14q0 -26 -10 -40.5t-25 -24.5t-33.5 -19t-36.5 -22q20 -25 36.5 -54.5t16.5 -62.5q0 -28 -16.5 -50.5t-41 -43t-53.5 -41t-53.5 -44t-41 -52.5
t-16.5 -66q0 -31 16 -47t40.5 -24t53 -11t53 -7.5t40.5 -14.5t16 -31q-25 0 -55 0.5t-60.5 3.5t-58.5 11t-50 23t-35.5 38.5t-13.5 58.5z" />
    <glyph glyph-name="bar" unicode="|" horiz-adv-x="224" 
d="M47 22q8 42 15.5 98t14 121t13 135t12.5 139.5t12.5 135t14.5 121.5q8 17 16.5 22t22.5 5q27 0 27 -27q-7 -18 -11 -60.5t-7.5 -103t-7.5 -133.5t-10.5 -150.5t-17.5 -155t-28 -147.5q-4 -11 -19.5 -19t-25.5 -8q-12 0 -16.5 8.5t-4.5 18.5z" />
    <glyph glyph-name="braceright" unicode="}" horiz-adv-x="292" 
d="M-266 -85q0 8 5.5 14t13.5 6q21 0 38.5 -7t39.5 -7q39 0 81.5 16t78 44.5t58.5 66t23 81.5v195q0 16 -6.5 30t-14 28t-14 28t-6.5 31q0 12 4.5 19t9.5 12.5t9.5 11t4.5 14.5q0 10 -4 19t-9.5 17t-9.5 17t-4 19q0 16 13 30.5t32 30t41.5 33t41.5 38t32 45.5t13 56
q0 3 -0.5 10.5t-1 15.5t-1 15.5t-0.5 10.5q-10 18 -32.5 27l-45 18t-39.5 21.5t-17 37.5q48 0 87.5 -5.5t67.5 -23t43.5 -49.5t15.5 -85q0 -37 -12.5 -69t-33 -60t-47 -52t-53.5 -45v-7q0 -11 6 -19t13.5 -16t13.5 -16.5t6 -18.5q0 -29 -18.5 -45.5t-45.5 -20.5q-1 -2 -1 -3
v-3v-3q0 -1 1 -3q1 -3 4.5 -8.5t7.5 -11.5t7.5 -11.5t5.5 -7.5v-221q0 -55 -28.5 -106.5t-72.5 -91.5t-98 -64t-105 -24q-11 0 -27.5 1.5t-32 6t-27 14t-11.5 24.5z" />
    <glyph glyph-name="asciitilde" unicode="~" horiz-adv-x="495" 
d="M306 484q-23 -2 -41 5.5t-35 20t-34 26.5t-36 24.5t-42.5 14t-52.5 -4.5q-2 0 -10 -2t-16.5 -4t-16 -4t-9.5 -2q-8 0 -11 7t-3 13q0 8 14 18t32 19t35 15t23 6q31 0 52.5 -14.5t41 -31.5t42 -31.5t55.5 -14.5q42 0 68.5 12.5t42 27.5t24 27.5t16.5 12.5q12 0 24 -3
t12 -19q-3 -23 -19.5 -40t-41 -30t-54.5 -24.5t-60 -23.5z" />
    <glyph glyph-name="exclamdown" unicode="&#xa1;" horiz-adv-x="387" 
d="M129.381 641.352q0 -1.77441 4.27344 -6.20898q4.27344 -4.43359 6.83789 -5.32129q3.41797 -0.886719 12.8203 -1.33008q9.40137 -0.443359 20.084 -1.33008q10.6836 -0.886719 20.085 -1.33008q9.40137 -0.444336 12.8203 -0.444336q0 24.834 -8.11914 46.5625
q-8.11914 21.7295 -35.4688 27.0508q-11.1113 1.77344 -17.5215 -5.32129q-6.41016 -7.0957 -9.82812 -17.7383q-3.41895 -10.6426 -4.70117 -20.8418t-1.28223 -13.7471zM161.858 315.858q0 -26.6074 5.9834 -50.9971q5.98242 -24.3896 14.5293 -47.4492t18.375 -46.1191
q9.8291 -23.0586 17.5215 -47.0059q3.41895 -10.6426 11.5381 -38.5801t17.0938 -58.9785q8.97363 -31.042 16.666 -58.9795q7.69141 -27.9365 10.2559 -38.5801q3.41895 -24.833 21.7939 -35.0322q18.376 -10.1992 38.8877 -10.1992q0 63.8564 -18.375 121.062
q-18.376 57.2051 -42.3066 112.193t-46.5801 110.419q-22.6484 55.4316 -31.1953 115.741h-5.12793q-29.0596 0 -29.0596 -27.4941z" />
    <glyph glyph-name="cent" unicode="&#xa2;" horiz-adv-x="366" 
d="M108 -39q2 11 4 21.5t4 20.5q-16 4 -31 12t-27 19t-19.5 25.5t-7.5 31.5q0 77 35.5 145.5t95.5 116.5q3 26 6.5 52.5t7.5 56.5q8 16 16.5 21t22.5 5q27 0 27 -26q-5 -12 -8 -28t-5 -36q15 7 30 12t28 3.5t21 -11.5t8 -32q0 -12 -2 -31.5t-11 -27.5q-4 -3 -9.5 -5
t-10.5 -4q-6 -2 -13 -3v63q-17 -3 -46 -22q-3 -52 -8.5 -120t-19.5 -153q23 4 46 11l46 14q23 7 46.5 12t48.5 5q0 -14 -3.5 -23.5t-11.5 -20.5q-45 -21 -90.5 -39.5t-94.5 -24.5q-4 -15 -7.5 -32t-7.5 -34q-8 -21 -30 -21q-6 0 -11 5.5t-9.5 13.5t-7 15.5t-2.5 12.5z
M94 114q0 -22 8 -33t24 -15q8 48 13.5 94t12.5 100q-25 -35 -41.5 -73.5t-16.5 -72.5z" />
    <glyph glyph-name="sterling" unicode="&#xa3;" horiz-adv-x="1127" 
d="M421 182q-19 0 -51.5 -16.5t-72.5 -36t-84 -36t-84 -16.5q-23 0 -43 8.5t-35 23.5t-24 35.5t-9 43.5q0 43 26 73.5t64.5 50.5t81 29.5t75.5 9.5q22 0 43 -4t42 -9.5t42 -9.5t42 -4h13q17 21 35.5 46t36 52t32.5 54.5t26 54.5q-2 0 -6.5 0.5t-6.5 0.5q-22 0 -42.5 -7
t-42.5 -7q-12 0 -25 8t-20 19q14 20 37 29.5t48 15.5l51 12q26 6 45 21q36 26 62.5 72t50 99t48 108t56.5 99.5t74.5 73t102.5 28.5q26 0 45 -12.5t31 -32.5t17.5 -44t5.5 -48v-7q-4 -18 -12 -37.5t-17 -38t-18.5 -36t-17.5 -31.5q-1 0 -3 -0.5t-3 -0.5q-12 0 -16 12t-4 22
q0 13 4 25.5t9.5 25t9.5 25.5t4 27q0 41 -12.5 63.5t-55.5 22.5q-22 0 -44 -22t-41.5 -50.5t-34 -57t-20.5 -40.5q-10 -20 -25.5 -54t-30 -67t-25 -57.5t-10.5 -27.5v-13q4 0 13.5 -0.5t12.5 -0.5q7 1 26 2.5t39.5 4t39 4.5t25.5 3q14 -9 14 -22q0 -1 -0.5 -3t-1.5 -2
l-210 -56l-191 -294q-15 -8 -21.5 -16t-6.5 -22q0 -2 0.5 -7t1.5 -7q41 -65 76.5 -101.5t78 -54.5t97.5 -22t136 -3q9 -4 12 -8t3 -11q0 -13 -23 -20t-52 -10t-55.5 -3.5t-33.5 -0.5q-52 0 -91 13.5t-68 34t-50.5 44t-38 44t-30 34t-26.5 13.5zM241 299q-12 0 -36 -4.5
t-48 -13t-42 -21t-18 -27.5v-91q0 -5 4.5 -7.5t11 -3.5t13 -1.5t9.5 -0.5q36 0 69.5 9.5t64.5 26t59 37.5t54 45v3l1 3q0 15 -16.5 24.5t-39.5 14t-47 6t-39 1.5z" />
    <glyph glyph-name="currency" unicode="&#xa4;" horiz-adv-x="548" 
d="M113 164q-5 14 -5 39q0 4 0.5 16t0.5 17q17 39 39.5 75t49.5 69q-24 33 -93 33q0 9 10 14t22 6.5t23 1.5h15q17 0 30.5 -5t24.5 -13q36 34 73 64q2 0 6.5 1t6.5 1q28 0 45.5 -12.5t28.5 -32.5q19 16 34.5 29t22.5 18q3 1 11 3t16 4.5t15.5 4.5t10.5 2h3q1 0 2 0.5t2 0.5
q8 0 13.5 -7t5.5 -15q0 -10 -10 -13.5t-23.5 -5.5t-26.5 -4t-19 -9l-43 -51q4 -16 4 -38q0 -25 -7.5 -51.5t-21.5 -52t-33 -49t-41 -41.5v-15h133q0 -21 -11 -32t-27 -15.5t-34.5 -5t-33.5 -0.5q-26 0 -46 10t-34 26q-16 -6 -31 -9.5t-31 -3.5q-21 0 -34 4
q-25 -28 -53.5 -49t-56.5 -21v45zM184 205q0 -11 9 -15.5t18 -4.5q25 0 48.5 13.5t42 34t29.5 45.5t11 49q0 11 -1.5 24t-6.5 23.5t-15.5 16.5t-29.5 2q-14 -3 -32 -26t-34.5 -53t-27.5 -60.5t-11 -48.5z" />
    <glyph glyph-name="yen" unicode="&#xa5;" horiz-adv-x="389" 
d="M43 341l11 1q11 2 28.5 4.5t39.5 5t46 5.5q1 12 2 22t2 18q1 9 1 17q2 20 -8 52t-25.5 67.5t-34.5 72t-35.5 65.5t-27.5 47l-11 19l57 24q21 -24 36 -53.5t27.5 -62.5t23.5 -66.5t24 -64.5l245 259q1 1 6 1h7q10 0 18.5 -4t8.5 -16l-1 -3v-3q-37 -42 -67 -82t-59.5 -78.5
t-62 -77.5t-74.5 -79q-2 -1 -3 -20t-2 -49q14 2 26.5 3.5t22.5 2.5h34q6 0 13.5 0.5t14 -1t11.5 -6t5 -13.5q0 -2 -0.5 -4t-0.5 -3q-29 -11 -61.5 -20.5t-66.5 -16.5q-1 -18 -1.5 -38t-1.5 -40q18 0 40.5 0.5t43.5 1t38 1t25 0.5q0 -10 -3 -17.5t-13 -12.5q-7 -1 -20.5 -3
t-31.5 -5t-38.5 -6t-41.5 -6q-2 -35 -2.5 -66.5t-1.5 -55.5q-1 -28 -1 -53q-11 0 -23 -6.5t-22.5 -13t-17.5 -8.5t-7 7q0 1 1.5 16.5t3.5 41.5t5.5 60t6.5 70q-27 -4 -49 -7t-32 -4q-3 -1 -15.5 -1.5t-14.5 -0.5q0 21 11.5 33.5t29 19t37.5 9t38 3.5q2 20 3.5 37.5t3.5 34.5
q-23 -3 -46 -5t-44 -2h-17q-8 0 -15.5 2t-13.5 8t-10 17z" />
    <glyph glyph-name="brokenbar" unicode="&#xa6;" horiz-adv-x="224" 
d="M96 456q8 85 16 166t17 150q8 17 16.5 22t22.5 5q27 0 27 -27q-6 -14 -9.5 -43.5t-6.5 -71t-5.5 -93t-5.5 -108.5h-72zM168 423q-6 -105 -18.5 -203t-36.5 -198q-4 -11 -19.5 -19t-25.5 -8q-12 0 -16.5 8.5t-4.5 18.5q16 75 26.5 177t21.5 228z" />
    <glyph glyph-name="section" unicode="&#xa7;" horiz-adv-x="393" 
d="M308 618v3q-10 3 -39 0t-57 -15.5t-44 -37t0 -64.5q20 0 37.5 4t32.5 6.5t28.5 -1t25.5 -19.5q28 -38 38 -70.5t5 -62t-24.5 -58.5t-49.5 -59q11 -7 19 -18q30 -40 31.5 -81t-15.5 -76.5t-47.5 -62.5t-65.5 -38.5t-70 -4t-60 40.5q-11 16 -14.5 30t13.5 27q2 2 9 6t9 5
q20 -23 45.5 -31.5t50 -5t45 17.5t31.5 34.5t9.5 46t-22.5 52.5q-10 14 -23 16q-40 -21 -79 -17q-11 -2 -20 -0.5t-16 11.5l-3 3q-15 9 -31 29q-19 25 -21.5 56t8 62t31 58.5t46.5 46.5q-10 1 -19 12q-30 40 -25 78t29 68.5t60 51t68.5 24.5t54.5 -10.5t20 -53.5
q2 -1 2.5 -2t-3.5 -1zM186 264q40 29 65.5 72t27.5 89q-15 22 -42.5 19t-55.5 -21.5t-51 -45.5t-28.5 -52.5t12.5 -43.5t72 -17z" />
    <glyph glyph-name="dieresis" unicode="&#xa8;" horiz-adv-x="415" 
d="M152 665q-27 0 -34.5 9.5t-2 21.5t19 24t27.5 17.5t25 1t11 -25.5q0 -22 -12.5 -35t-33.5 -13zM323 672q-27 0 -34.5 9.5t-2 21.5t19 24t27.5 17.5t25 1t11 -25.5q0 -22 -12.5 -35t-33.5 -13z" />
    <glyph glyph-name="copyright" unicode="&#xa9;" horiz-adv-x="695" 
d="M414 547q-23 -3 -53.5 -28.5t-57.5 -62.5t-46 -79.5t-19 -78.5q0 -29 15 -40t43 -11q30 0 58.5 7t56.5 16t56.5 16t58.5 7q0 -14 -3.5 -23.5t-11.5 -20.5q-53 -25 -107.5 -45.5t-114.5 -20.5q-18 0 -38 6.5t-37 18.5t-28.5 29t-11.5 38q0 45 13 87.5t36 80.5t55.5 70
t70.5 56v1q15 9 34.5 18t36.5 10t28.5 -8t11.5 -36q0 -6 -0.5 -14t-2 -16.5t-4 -16t-7.5 -11.5q-4 -4 -9.5 -6t-10.5 -4q-6 -2 -12 -3v64zM27 257q0 1 0.5 6t0.5 7q35 129 85 213t111 135t131 76t146 36q14 0 18.5 -2.5t15.5 -12.5q31 -37 55.5 -68t41 -63.5t25.5 -68.5
t9 -83q-11 -63 -41 -121.5t-71.5 -108.5t-91.5 -88.5t-103 -60t-104.5 -23t-96.5 21t-79 72.5t-52 133zM109 220q30 -59 66 -89t75 -37t78.5 5t76.5 37.5t70 61.5t59 75.5t42.5 80.5t20.5 76q0 35 -5 65.5t-17.5 58t-34 53t-55.5 50.5q-50 -1 -101.5 -21.5t-97.5 -55
t-84.5 -79t-63.5 -93t-34 -97t5 -91.5z" />
    <glyph glyph-name="ordfeminine" unicode="&#xaa;" horiz-adv-x="345" 
d="M18.9189 267.713q5.95996 33.9482 22.5137 62.5361q16.5547 28.5879 38.0752 49.7305q21.5205 21.1436 46.6826 34.8418q25.1631 13.6982 49.001 17.5693t44.0342 -2.08398q20.1963 -5.95605 32.7773 -23.8232q0 -13.6982 -6.95312 -26.2061
q-6.95215 -12.5068 -15.2295 -25.0137q-8.27734 -12.5078 -15.2295 -25.6104q-6.95312 -13.1025 -6.95312 -27.9922q0 -15.4854 7.61523 -24.7168q7.61426 -9.23145 26.8174 -9.23145q15.8926 0 30.791 4.16895t30.1289 4.16895q2.64844 0 8.93945 -0.297852
q6.29004 -0.297852 8.27734 -0.297852q-7.94629 -10.125 -20.5273 -17.2715q-12.582 -7.14746 -26.4873 -12.21q-13.9053 -5.06152 -28.8047 -7.44434q-14.8984 -2.38281 -27.4795 -2.38281q-11.9189 0 -21.1895 4.76562q-9.27051 4.76367 -15.8926 12.5068
q-6.62109 7.74219 -10.2637 17.5693q-3.6416 9.82715 -3.6416 19.3564q-9.93262 -10.125 -21.5205 -21.1426q-11.5879 -11.0186 -24.5 -19.9521q-12.9131 -8.93359 -27.8115 -14.8896t-30.791 -5.95605q-17.2158 0 -29.7979 11.6143q-12.5811 11.6133 -12.5811 27.6943z
M62.6221 286.176q0 -4.76465 0.331055 -10.7207q0.331055 -5.95508 8.27734 -7.74219q16.5547 3.57324 37.7441 15.7832q21.1895 12.209 39.7295 28.5879q18.541 16.3779 31.1221 35.1387q12.582 18.7607 12.582 36.0332q0 1.19043 -0.332031 3.87109
q-0.331055 2.67969 -0.331055 3.87109q-22.5137 0 -45.6895 -8.33789t-41.7168 -22.9297t-30.1289 -33.6504t-11.5879 -39.9043z" />
    <glyph glyph-name="guillemotleft" unicode="&#xab;" horiz-adv-x="729" 
d="M294 282q0 11 9 18.5t18 13.5q10 6 31 19.5t48 30t56.5 34.5t56.5 34.5t48.5 30t31.5 19.5l21 14q9 6 18 9.5t19.5 5.5t26.5 2q0 -25 -13 -40t-33 -30q-8 -5 -25.5 -16.5t-39 -25.5t-45.5 -29.5t-45.5 -29.5t-39 -25t-25.5 -16q-15 -8 -15 -20v-4q0 -1 1 -2l247 -38
q0 -3 1 -5q0 -2 0.5 -3.5t0.5 -2.5q0 -27 -29 -42h-12q-9 0 -19.5 -0.5t-19.5 -0.5h-13q-13 0 -37.5 2t-53.5 6t-59 11.5t-54.5 18.5t-40 26t-15.5 35zM5 227q0 11 9 19t18 14q10 6 31.5 19t48 29.5t56.5 35t56.5 35t48 29.5t31.5 20l21 14q9 6 18 9.5t19.5 5.5t26.5 2
q0 -25 -13 -40t-33 -30q-12 -8 -43.5 -28.5t-66.5 -43t-66 -43t-44 -27.5q-14 -8 -14 -21v-3q0 -1 1 -2l246 -39q0 -2 1 -4q0 -2 0.5 -3.5t0.5 -2.5q0 -28 -28 -42h-13q-9 0 -19.5 -0.5t-19.5 -0.5h-13q-13 0 -37.5 1.5t-53.5 6t-59 11.5t-54.5 18t-40 26t-15.5 35z" />
    <glyph glyph-name="logicalnot" unicode="&#xac;" horiz-adv-x="514" 
d="M415 199q-6 32 -5 61.5t2.5 52.5t1.5 38.5t-7 20.5q-9 3 -37.5 2t-66.5 -4.5t-80.5 -8t-80.5 -8t-66 -5t-37 1.5q-24 31 -26.5 44t9 17t32.5 3t45 1l345 12q23 1 32 -16.5t9 -34.5l-31 -191q-1 0 -3 -0.5t-4 -0.5q-16 0 -32 15z" />
    <glyph glyph-name="uni00AD" unicode="&#xad;" horiz-adv-x="419" 
d="M76 260q27 3 58.5 7.5t64.5 9t65.5 7.5t61.5 3q8 0 17 0.5t17.5 -2t15.5 -8t10 -17.5q-6 -11 -24 -19.5t-43 -14.5t-53 -9.5t-52 -6t-41.5 -3t-20.5 -0.5q-9 0 -22 1.5t-25 5t-20.5 8.5t-8.5 11v27z" />
    <glyph glyph-name="registered" unicode="&#xae;" horiz-adv-x="785" 
d="M24 128q0 1 0.5 7t0.5 8q-2 97 12 189t44.5 172.5t76 145t106 106t136.5 55t166 -7.5q8 0 13 -0.5t8.5 -2t7 -5.5t8.5 -10q24 -27 41.5 -48t30.5 -40.5t23 -40t18.5 -46.5t16 -60t17.5 -80q7 -98 -18.5 -179.5t-74 -144.5t-115.5 -106.5t-144 -64.5t-159 -19t-160 30
q-18 10 -28.5 27.5t-16.5 38t-8 40.5t-2 36zM115 87q33 -48 85.5 -63t112 -4.5t121.5 42.5t115 78q-21 -3 -39.5 11t-36 37.5t-34.5 52.5t-35 55.5t-37.5 47.5t-42.5 29q0 -13 -2 -45.5t-4 -68.5t-4 -68.5t-3 -45.5q-1 -9 -1 -14t-0.5 -8t-3.5 -5.5t-9 -5.5q-11 -6 -24 -2
t-18 15q-8 38 -10.5 83.5t-1 93t6 95.5t9.5 90q3 57 20.5 105t44.5 75.5t62 29.5t73 -33q13 -25 13.5 -54.5t-6.5 -58.5t-19 -56.5t-23.5 -48.5t-20 -34.5t-7.5 -14.5q10 -17 24 -40.5t31.5 -48.5t37.5 -48t41 -38.5t42 -21t40 4.5q25 31 42 57t25.5 55.5t10 67t-3.5 90.5
q-13 51 -22 85.5t-22 61t-34.5 49t-58.5 51.5q-51 28 -100.5 28t-96 -22t-87 -62.5t-73.5 -93t-56 -114t-34 -125.5t-8.5 -127t21.5 -119zM323 430q16 -10 34 3.5t33 39.5t25 58.5t11.5 58.5t-8.5 40.5t-34 5.5q-20 -11 -35 -38t-23.5 -59t-10 -62.5t7.5 -46.5z" />
    <glyph glyph-name="macron" unicode="&#xaf;" horiz-adv-x="419" 
d="M43 610q27 3 63 4t74 2t74 1h65q17 0 31 -7.5t21 -30.5q-26 -5 -58.5 -8.5t-67 -6t-68.5 -3.5t-62.5 -0.5t-49 3t-28.5 6.5z" />
    <glyph glyph-name="degree" unicode="&#xb0;" horiz-adv-x="289" 
d="M29 475q0 2 0.5 12t0.5 12q26 81 65 130.5t86 52.5q1 0 4.5 0.5t5.5 0.5q21 0 34.5 -8.5t21.5 -22t11.5 -30t3.5 -32.5q0 -29 -14 -60.5t-37.5 -57.5t-54 -43t-63.5 -17t-48.5 16.5t-15.5 46.5zM89 484q0 -8 6.5 -11.5t14.5 -3.5q19 0 37.5 10t33 25.5t23 34t8.5 35.5
q0 9 -1 19t-5 18t-12.5 12t-23.5 1q-11 -2 -25 -19.5t-26.5 -40t-21 -45t-8.5 -35.5z" />
    <glyph glyph-name="plusminus" unicode="&#xb1;" horiz-adv-x="499" 
d="M44 156q21 2 53.5 3t70.5 3v6q0 27 6 52.5t6 51.5h-141q-15 0 -22 8.5t-7 19.5q0 3 1 7t2 4l195 39q6 1 10.5 9t8 17.5t4.5 17.5l2 8q1 4 3.5 15.5t4.5 23.5t4 23t2 16h3l3 1q17 0 31.5 -14.5t14.5 -31.5q0 -7 -3.5 -16.5t-8 -19.5t-9 -19.5t-6.5 -15.5q5 0 17 -1t16 -1
q42 0 82 7.5t82 7.5q9 0 17.5 -5t8.5 -16q0 -6 -9.5 -11t-21.5 -9.5t-22.5 -7.5t-13.5 -3q-10 -2 -34 -6t-50.5 -8t-50.5 -7.5t-33 -4.5l-34 -136q50 1 94.5 1.5t72.5 0.5q8 0 17.5 0.5t18 -2t15.5 -8t10 -17.5q-6 -12 -32 -19t-62 -11t-76.5 -5.5t-75.5 -1.5t-60 0.5
t-28 0.5q-9 0 -22 2t-25 5.5t-20.5 8.5t-8.5 11v27z" />
    <glyph glyph-name="twosuperior" unicode="&#xb2;" horiz-adv-x="337" 
d="M19.8604 181.571q0 1.58203 0.577148 6.59277q0.578125 5.01172 1.15527 7.12109q33.4961 25.8457 57.4629 48.5273q23.9668 22.6807 44.1797 46.1533q20.2129 23.4717 39.8486 50.1084q19.6357 26.6377 45.0459 60.3955q13.8604 25.3184 12.9941 34.0215
t-11.2617 6.59277q-10.3945 -2.10938 -28.0088 -11.6035q-17.6143 -9.49512 -37.5391 -19.7803q-19.9238 -10.2861 -39.5596 -18.4609q-19.6357 -8.17578 -33.4961 -7.12109q0 7.91211 8.95215 17.6699q8.95117 9.75781 23.1006 19.7803q14.1484 10.0215 31.4746 19.7793
q17.3252 9.75879 34.3613 17.4072q17.0371 7.64746 31.4746 12.3955q14.4385 4.74707 23.1006 4.74707q6.93066 0 13.5723 -2.37402q6.64062 -2.37305 11.8389 -6.59375q5.19727 -4.21875 8.66309 -9.75781q3.46484 -5.53809 3.46484 -11.8682q0 -18.4609 -10.1064 -39.0322
t-25.1221 -40.6152q-15.0156 -20.043 -32.6299 -39.2959q-17.6143 -19.252 -32.6299 -35.0762q-15.0146 -15.8242 -25.1211 -27.6924q-10.1064 -11.8672 -10.1064 -17.1426q21.3682 -13.1865 40.4258 -23.208q16.1699 -8.9668 31.1855 -15.8242t21.3682 -6.85742
q11.5508 0 21.0791 3.42871q9.5293 3.42871 18.4805 5.80273q8.95215 2.37305 18.4805 1.58203q9.5293 -0.791016 21.6572 -9.23047q0 -0.527344 -4.33203 -3.69238q-4.33105 -3.16504 -10.1064 -7.64844q-5.77441 -4.4834 -12.416 -8.9668t-10.6846 -7.12109
q-22.5225 -13.1865 -42.1582 -11.3398q-19.6357 1.8457 -38.1162 10.2852t-36.6719 19.5166q-18.1914 11.0762 -37.25 16.3516q-15.5928 0 -22.8115 -7.64844t-12.7051 -16.8789t-11.8398 -16.8789q-6.35254 -7.64844 -19.6348 -7.64844q-12.7051 0 -16.1709 5.27441
q-3.46484 5.27441 -3.46484 15.8242z" />
    <glyph glyph-name="threesuperior" unicode="&#xb3;" horiz-adv-x="345" 
d="M15.9775 252.094q0 6 6.06641 6.81836t8.95508 0.818359q8.66699 0 14.7334 -4.90918t11.2656 -12.001q5.2002 -7.09082 9.82227 -15.8184t10.6885 -15.8184q6.06641 -7.0918 14.1553 -12.001q8.08789 -4.90918 20.2217 -4.90918q30.043 0 57.4863 12.2734
q27.4443 12.2725 48.2432 32.7285q20.7988 20.4551 33.2207 46.9102t12.4219 54.2744q0 12 -5.77734 22.0918q-5.77734 10.0908 -20.7988 10.0908q-0.578125 0 -1.7334 -0.272461t-1.7334 -0.272461q-1.7334 -0.545898 -8.37793 -3.81836
q-6.64355 -3.27344 -14.1553 -7.0918q-7.51074 -3.81836 -14.1543 -6.81836q-6.64453 -3 -8.37793 -3.54492q-1.15527 -0.545898 -5.77734 0.817383q-4.62207 1.36426 -9.5332 3.5459t-9.24414 4.63672q-4.33301 2.4541 -4.91113 4.63672q8.66699 12.5459 24.8438 27.2734
q16.1777 14.7275 33.5098 29.1826q17.333 14.4551 32.3545 27.5459q15.0225 13.0918 21.3779 22.3643q0 14.7275 -7.7998 16.0918q-7.7998 1.36328 -20.2217 -3q-12.4219 -4.36426 -27.7324 -11.4551t-30.9102 -8.72754h-1.7334q-0.578125 0 -1.7334 0.545898
q-1.15527 0.544922 -4.33301 2.4541t-6.64453 4.09082q-3.4668 2.18262 -6.64453 4.0918q-3.17676 1.90918 -4.33301 3q9.82227 11.4541 23.6885 22.0908t29.7549 18.2734q15.8877 7.63672 32.3545 12.2734q16.4658 4.63672 32.0654 4.63672q11.5547 0 20.5098 -1.09082
q8.95605 -1.0918 15.0225 -4.63672q6.06641 -3.5459 9.24414 -10.3643t3.17773 -18.8184q0 -1.63672 -1.15625 -5.18262q-1.15527 -3.54492 -6.93262 -13.3633q-5.77734 -9.81934 -18.1992 -27.5469t-34.9551 -47.1826q6.93359 -4.91016 13.5781 -11.4551
q6.64355 -6.5459 12.1328 -14.4551q5.48828 -7.90918 8.95508 -16.3643t3.4668 -17.1826q0 -34.9102 -15.0225 -67.6387q-15.0215 -32.7275 -40.1543 -57.8193q-25.1318 -25.0918 -58.3535 -40.3652q-33.2207 -15.2734 -70.1973 -15.2734q-20.2217 0 -38.4209 5.45508
t-32.3545 16.3643t-22.5332 27.001q-8.37695 16.0908 -8.37695 36.8193z" />
    <glyph glyph-name="acute" unicode="&#xb4;" horiz-adv-x="237" 
d="M161 829q17 -1 15 -16.5t-14.5 -37t-31.5 -45.5t-38 -41.5t-33.5 -24.5t-16.5 5q4 10 18 34t32 49.5t36.5 47.5t32.5 29z" />
    <glyph glyph-name="mu" unicode="&#xb5;" horiz-adv-x="462" 
d="M39 15q0 15 0.5 50t2 78t5 88.5t9 83t14 62t21.5 24.5q14 0 27 -1.5t13 -15.5q-23 -133 -14.5 -210t38.5 -82.5t77.5 69t104.5 245.5q4 12 12 13.5t17.5 -1.5t19 -7.5t15.5 -4.5q0 -38 -4.5 -69t-9.5 -61t-9.5 -61t-4.5 -69q0 -16 4.5 -35.5t12 -37.5t16 -30t17.5 -13
v-26q-46 -2 -76.5 30.5t-50.5 95.5q-9 -42 -34 -71t-55.5 -42t-63.5 -8q-30 5 -54 30v-1q4 -13 7 -38t4 -55.5t-4 -54.5t-17.5 -36t-35.5 0q-2 1 -3 13t-1.5 29t-0.5 37t0.5 38t0.5 30v14z" />
    <glyph glyph-name="paragraph" unicode="&#xb6;" horiz-adv-x="544" 
d="M219 24q0 1 1 3q30 76 55 149t50.5 145t52.5 144t62 147l-87 3q0 -10 -8 -41.5t-22 -76.5t-31.5 -99.5t-37 -110t-39.5 -107.5t-37.5 -92t-31.5 -64.5t-22 -24.5q-23 0 -35 14t-12 34v9q0 7 1 9l168 414v10q-27 0 -39 -2.5t-22.5 -5t-25 -5t-45.5 -2.5q-21 0 -38 11
t-29 28t-18.5 37t-6.5 37q0 44 18 71.5t47 42.5t65.5 20t73.5 5q11 0 29 -1t46.5 -4t70 -9.5t98.5 -16.5q19 -3 30 -7.5t16 -12.5t6.5 -20t1.5 -30q-73 -159 -120 -278t-74.5 -196.5t-39 -113.5t-14.5 -29h-15q-9 0 -18.5 0.5t-16.5 3t-7 8.5v4z" />
    <glyph glyph-name="periodcentered" unicode="&#xb7;" horiz-adv-x="264" 
d="M99 290q1 13 11.5 21.5t24 8.5t26.5 -10.5t20 -37.5q0 -21 -12 -34.5t-34 -13.5q-3 0 -9 -1.5t-12 3t-10.5 19t-4.5 45.5z" />
    <glyph glyph-name="cedilla" unicode="&#xb8;" horiz-adv-x="328" 
d="M58 -152q0 14 4 23t20 9h7q5 0 7 -1q-1 -31 11 -46.5t41 -15.5q25 0 41 3.5t25 12.5t12.5 25.5t3.5 43.5q0 16 -9.5 24t-21 14t-21 12t-9.5 18q-2 47 8 68t20.5 19t16 -25t-5.5 -62q11 -8 23 -14.5t21.5 -13.5t16 -16t6.5 -22q0 -70 -28 -100t-94 -30q-38 0 -66.5 18
t-28.5 56z" />
    <glyph glyph-name="onesuperior" unicode="&#xb9;" horiz-adv-x="242" 
d="M16.5176 160.273q0 0.791016 0.375 2.56836q0.375977 1.77832 0.375977 2.56836q16.5215 23.709 35.2959 52.5547q18.7744 28.8447 38.2998 58.876q19.5254 30.0303 38.2998 58.6777q18.7744 28.6484 36.0469 52.3564q6.00781 6.71777 12.3906 8.69336
q6.38379 1.97559 16.8975 1.97559q20.2764 0 20.2764 -10.6689q-1.50195 -9.08789 -10.5137 -28.8447q-9.01172 -19.7578 -27.0352 -48.998t-45.4336 -66.9766q-27.4111 -37.7354 -65.7109 -82.7822q-3.00391 -4.34668 -14.6445 -7.50781
q-11.6396 -3.16113 -19.1494 -3.16113q-8.26074 0 -12.0156 3.35938q-3.75488 3.3584 -3.75488 7.30957z" />
    <glyph glyph-name="ordmasculine" unicode="&#xba;" 
d="M8.19141 327.058q0 2.81152 0.393555 11.6006q0.394531 8.78809 0.394531 11.6006q25.2285 51.3232 64.6484 94.9131q39.4189 43.5898 89.0879 77.3369q1.57715 0 5.12402 1.05469q3.54785 1.05469 5.125 1.05469q21.2861 0 35.083 -8.08496t22.0752 -21.0918
t11.4316 -28.8262q3.15332 -15.8184 3.15332 -30.583q0 -27.4189 -14.1904 -57.2998q-14.1914 -29.8799 -38.2373 -54.8389t-54.793 -40.7773q-30.7471 -15.8193 -63.8594 -15.8193q-33.1133 0 -49.2744 15.8193q-16.1621 15.8184 -16.1621 43.9414zM69.6855 335.494
q0 -7.7334 7.0957 -10.5459t14.1904 -2.8125q19.71 0 38.2373 9.49121q18.5273 9.49219 33.1123 23.9043q14.585 14.4131 23.2578 31.9893q8.67188 17.5771 8.67188 33.7471q0 7.73438 -1.18262 17.2256t-5.12402 16.873q-3.94238 7.38281 -12.2197 11.6006
q-8.27832 4.21875 -23.2578 1.40625q-11.0381 -2.10938 -25.2285 -18.2793q-14.1914 -16.1709 -27.1992 -37.6143q-13.0088 -21.4434 -21.6816 -42.8867q-8.67188 -21.4434 -8.67188 -34.0986z" />
    <glyph glyph-name="guillemotright" unicode="&#xbb;" horiz-adv-x="760" 
d="M319 91q7 19 25.5 36t44 32t55.5 27t59.5 21.5t55.5 16t45 9.5q0 1 0.5 3.5t0.5 3.5q0 13 -15 21t-24 11q-14 5 -47 16t-70 23.5t-70 23.5t-46 15q-16 20 -14.5 34.5t13.5 22.5t30.5 10t37 -1.5t32.5 -13.5t18 -26l232 -90q41 -17 41 -52q0 -16 -10.5 -24t-25.5 -11
t-30.5 -3.5t-25.5 -0.5l-273 -117q-1 0 -2.5 -0.5t-3.5 -0.5q-9 0 -16.5 3.5t-16.5 10.5zM26 91q7 19 25.5 36t44 32t55.5 27t59 21.5t55.5 16t44.5 9.5q0 1 0.5 3.5t0.5 3.5q0 13 -15 21t-24 11q-13 5 -46 16l-141 47q-33 11 -46 15q-16 20 -14.5 34.5t13.5 22.5t30.5 10
t37 -1.5t32.5 -13.5t18 -26l232 -90q41 -17 41 -52q0 -16 -10.5 -24t-25.5 -11t-30.5 -3.5t-25.5 -0.5l-272 -117q-2 0 -3.5 -0.5t-3.5 -0.5q-9 0 -16.5 3.5t-15.5 10.5z" />
    <glyph glyph-name="onequarter" unicode="&#xbc;" horiz-adv-x="742" 
d="M16.7979 169.543q0 1.11816 0.382812 3.63477q0.383789 2.51758 0.383789 3.63574q16.8633 33.5596 36.0273 74.3906q19.1631 40.8311 39.0938 83.3398q19.9297 42.5088 39.0938 83.0596q19.1631 40.5508 36.793 74.1113q6.13281 9.50781 12.6484 12.3047
t17.2471 2.79688q20.6963 0 20.6963 -15.1016q-1.5332 -12.8652 -10.7314 -40.8311q-9.19824 -27.9668 -27.5947 -69.3564q-18.3975 -41.3906 -46.376 -94.8057q-27.9785 -53.416 -67.0723 -117.179q-3.06641 -6.15332 -14.9482 -10.6279
q-11.8809 -4.47461 -19.5459 -4.47461q-8.43262 0 -12.2646 4.75488q-3.83301 4.75391 -3.83301 10.3477zM86 38q0 15 3.5 25.5t23.5 18.5q8 14 25 43.5t38.5 66.5t45.5 78t46 78t39.5 66.5t26.5 43.5q10 17 28 43.5t39 54t44 53.5t44 43q2 1 8 2.5t8 1.5q0 -15 -13.5 -44
t-34.5 -64.5t-47 -74.5t-51 -76t-45.5 -69t-31.5 -52q-12 -21 -29.5 -56.5t-38.5 -73t-43.5 -73t-44.5 -56.5q-3 -3 -13 -8t-12 -5q-6 0 -9.5 4.5t-4.5 10t-1 11v8.5zM310.203 19.5166q13.1963 17.0322 25.7646 39.3047q12.5684 22.2734 24.5088 45.5293
q11.9395 23.2559 21.6797 45.5283q9.74023 22.2734 17.2812 39.3057v1.96484q0 1.31055 0.314453 1.6377q0.314453 0.328125 0.314453 0.983398q0 10.4814 -9.74023 15.0664q-9.74023 4.58594 -22.3086 5.89648q-12.5684 1.30957 -24.8232 0.982422
q-12.2539 -0.327148 -17.2812 -0.327148q-23.8799 0 -36.1338 -8.18945q-12.2539 -8.18848 -19.7949 -18.0146t-14.1396 -18.0146q-6.59863 -8.18945 -19.167 -8.18945q-8.79785 0 -16.9668 5.89648q-8.16992 5.89551 -8.16992 15.7217q0 4.58594 10.9971 23.584
q10.9971 18.9971 28.2793 44.2178q17.2812 25.2217 38.0186 53.3906q20.7383 28.1689 40.5332 52.0791q19.7949 23.9111 35.5059 39.3057t22.623 15.3945q0 -18.3428 -6.91211 -37.3398q-6.91309 -18.998 -17.2822 -38.6504q-10.3682 -19.6533 -22.623 -39.6328
q-12.2539 -19.9805 -22.3086 -39.6328q0 -0.655273 6.59863 -1.63867q6.59766 -0.982422 15.71 -2.62012t18.5381 -2.94727q9.42676 -1.31055 15.7109 -1.96582h26.3936q1.25684 0 5.96973 -0.655273t10.0547 0t9.74023 2.62109q4.39941 1.96484 5.65625 7.20605
q1.88477 5.24023 6.91211 16.0488q5.02734 10.8096 11.3125 24.2383q6.2832 13.4297 13.5107 28.1689q7.22656 14.7402 13.8252 28.1689q6.59766 13.4297 11.625 23.9111t7.54102 15.7217q7.54102 14.4121 13.5117 25.877q5.96973 11.4639 12.8828 19.6523
q6.91211 8.18848 16.3379 12.4463q9.42676 4.25879 24.5088 4.25879q0 -5.24121 -5.96973 -19.3252q-5.9707 -14.085 -13.5117 -29.8066q-7.54102 -15.7227 -14.4531 -29.4795t-8.79785 -18.3428q-0.62793 -4.58496 -5.65527 -14.7393q-5.02734 -10.1533 -11.626 -22.9277
t-13.8252 -26.8594q-7.22656 -14.084 -12.5684 -25.876q-5.3418 -11.791 -7.22656 -19.6523q-1.88574 -7.86133 1.88477 -9.1709q10.6836 0 18.5381 5.24023q7.85547 5.24121 18.5381 5.24121q6.91309 0 13.5117 -2.62109q6.59766 -2.62012 6.59766 -11.791
q0 -9.82715 -6.59766 -15.3945q-6.59863 -5.56836 -16.6533 -9.17188q-10.0547 -3.60254 -22.623 -6.87793t-24.5088 -7.86133q-11.9395 -4.58594 -21.6797 -12.4473q-9.74023 -7.86035 -14.1396 -20.3076q-5.02734 -15.0664 -13.1963 -40.9424
q-8.16992 -25.877 -19.7959 -50.7695q-11.626 -24.8936 -27.6504 -43.2363t-36.7627 -18.3428q-5.65527 0 -10.0547 0.982422q-4.39844 0.983398 -6.2832 8.18945z" />
    <glyph glyph-name="onehalf" unicode="&#xbd;" horiz-adv-x="717" 
d="M37.1357 172.997q0 1.53809 0.30957 4.99902q0.308594 3.46094 0.308594 4.99902q13.6113 46.1465 29.0771 102.291t31.5518 114.597q16.084 58.4512 31.5508 114.212q15.4668 55.7598 29.6953 101.906q4.94922 13.0742 10.208 16.9199t13.9189 3.8457
q16.7041 0 16.7041 -20.7656q-1.2373 -17.6895 -8.66113 -56.1445q-7.42383 -38.4561 -22.2715 -95.3691q-14.8477 -56.9141 -37.4287 -130.363t-54.1318 -161.127q-2.47461 -8.46094 -12.0635 -14.6133q-9.58887 -6.15332 -15.7764 -6.15332q-6.80469 0 -9.89844 6.53809
q-3.09277 6.53711 -3.09277 14.2285zM72 51q0 15 3.5 25.5t23.5 18.5q8 14 25 43.5t38.5 66.5t45.5 78t46 78t39.5 66.5t26.5 43.5q10 17 28 43.5t39 54t44 53.5t44 43q2 1 8 2.5t8 1.5q0 -15 -13.5 -44t-34.5 -64.5t-47 -74.5t-51 -76t-45.5 -69t-31.5 -52
q-12 -21 -29.5 -56.5t-38.5 -73t-43.5 -73t-44.5 -56.5q-3 -3 -13 -8t-12 -5q-6 0 -9.5 4.5t-4.5 10t-1 11v8.5zM257.19 31.7725q0 2.05859 0.757812 8.58008t1.51562 9.26758q43.9609 33.6367 75.415 63.1543q31.4541 29.5186 57.9814 60.0654
q26.5283 30.5479 52.2979 65.2139q25.7695 34.667 59.1191 78.6006q18.1904 32.9502 17.0537 44.2764q-1.1377 11.3271 -14.7803 8.58105t-36.7598 -15.1025t-49.2656 -25.7422t-51.9189 -24.0264q-25.7695 -10.6396 -43.96 -9.2666q0 10.2969 11.748 22.9961
t30.3174 25.7422t41.3076 25.7422q22.7383 12.7002 45.0967 22.6533q22.3594 9.9541 41.3076 16.1318q18.9482 6.17871 30.3174 6.17871q9.0957 0 17.8115 -3.08984q8.7168 -3.08887 15.5381 -8.58008q6.82129 -5.49219 11.3682 -12.7002q4.54785 -7.20703 4.54785 -15.4453
q0 -24.0264 -13.2637 -50.7979q-13.2637 -26.7725 -32.9697 -52.8574q-19.707 -26.0859 -42.8232 -51.1416q-23.1172 -25.0557 -42.8232 -45.6494q-19.707 -20.5947 -32.9707 -36.04t-13.2637 -22.3096q28.043 -17.1621 53.0557 -30.2041q21.2217 -11.6699 40.9277 -20.5947
q19.707 -8.92383 28.0439 -8.92383q15.1582 0 27.665 4.46191q12.5059 4.46191 24.2539 7.55176q11.7471 3.08887 24.2539 2.05957q12.5059 -1.03027 28.4219 -12.0137q0 -0.686523 -5.68457 -4.80469q-5.68457 -4.11914 -13.2637 -9.9541t-16.2959 -11.6699
q-8.71582 -5.83496 -14.0215 -9.26758q-29.5596 -17.1611 -55.3291 -14.7588q-25.7695 2.40332 -50.0234 13.3857q-24.2539 10.9844 -48.1289 25.3994q-23.875 14.416 -48.8867 21.2803q-20.4648 0 -29.9385 -9.95312q-9.47461 -9.9541 -16.6748 -21.9668
q-7.2002 -12.0137 -15.5371 -21.9668q-8.33789 -9.9541 -25.7705 -9.9541q-16.6748 0 -21.2217 6.86426q-4.54785 6.86523 -4.54785 20.5947z" />
    <glyph glyph-name="threequarters" unicode="&#xbe;" horiz-adv-x="945" 
d="M16.6914 255.892q0 6.5498 7.01367 7.44336t10.3535 0.893555q10.0195 0 17.0332 -5.35938t13.0254 -13.1006t11.3555 -17.2686t12.3574 -17.2676q7.01367 -7.74121 16.3652 -13.1006q9.35156 -5.3584 23.3789 -5.3584q34.7344 0 66.4629 13.3975t55.7754 35.7275
t38.4082 51.209q14.3613 28.8799 14.3613 59.248q0 13.1006 -6.67969 24.1162q-6.67969 11.0166 -24.0469 11.0166q-0.667969 0 -2.00391 -0.297852t-2.00391 -0.297852q-2.00391 -0.595703 -9.68555 -4.16797q-7.68164 -3.57324 -16.3652 -7.74121t-16.3652 -7.44336
q-7.68164 -3.27441 -9.68555 -3.87012q-1.33594 -0.595703 -6.67969 0.892578q-5.34375 1.48926 -11.0215 3.87109t-10.6875 5.06152q-5.00977 2.67871 -5.67773 5.06152q10.0195 13.6953 28.7227 29.7725t38.7422 31.8574q20.0391 15.7793 37.4062 30.0703t24.7148 24.4141
q0 16.0771 -9.01758 17.5654q-9.01758 1.48926 -23.3789 -3.27441t-32.0625 -12.5049t-35.7363 -9.52734h-2.00391q-0.667969 0 -2.00391 0.595703t-5.00977 2.67969t-7.68164 4.46582t-7.68164 4.46582t-5.00977 3.27539q11.3555 12.5039 27.3867 24.1152t34.4004 19.9482
t37.4062 13.3975q19.0371 5.06152 37.0723 5.06152q13.3594 0 23.7129 -1.19043q10.3535 -1.19141 17.3672 -5.06152t10.6875 -11.3135t3.67383 -20.5439q0 -1.78613 -1.33594 -5.65625q-1.33594 -3.87109 -8.01562 -14.5889q-6.67969 -10.7188 -21.041 -30.0713
t-40.4121 -51.5068q8.01562 -5.35938 15.6973 -12.5049t14.0273 -15.7793t10.3535 -17.8643q4.00781 -9.22949 4.00781 -18.7568q0 -38.1094 -17.3672 -73.8369t-46.4238 -63.1182q-29.0566 -27.3916 -67.4648 -44.0645t-81.1582 -16.6729q-23.3789 0 -44.4199 5.95508
q-21.041 5.9541 -37.4062 17.8633t-26.0508 29.4756q-9.68555 17.5654 -9.68555 40.1934zM236 51q0 15 3.5 25.5t23.5 18.5q8 14 25 43.5t38.5 66.5t45.5 78t46 78t39.5 66.5t26.5 43.5q10 17 28 43.5t39 54t44 53.5t44 43q2 1 8 2.5t8 1.5q0 -15 -13.5 -44t-34.5 -64.5
t-47 -74.5t-51 -76t-45.5 -69t-31.5 -52q-12 -21 -29.5 -56.5t-38.5 -73t-43.5 -73t-44.5 -56.5q-3 -3 -13 -8t-12 -5q-6 0 -9.5 4.5t-4.5 10t-1 11v8.5zM477.595 -1.68359q15.6064 22.6328 30.4697 52.2285q14.8633 29.5967 28.9834 60.499t25.6396 60.499
q11.5186 29.5957 20.4365 52.2285v2.61133q0 1.74121 0.37207 2.17676q0.371094 0.43457 0.371094 1.30566q0 13.9277 -11.5195 20.0205q-11.5186 6.09375 -26.3818 7.83496q-14.8633 1.74023 -29.3545 1.30566q-14.4922 -0.435547 -20.4375 -0.435547
q-28.2402 0 -42.7324 -10.8809q-14.4912 -10.8809 -23.4092 -23.9385t-16.7217 -23.9385q-7.80273 -10.8809 -22.666 -10.8809q-10.4043 0 -20.0654 7.83398q-9.66113 7.83496 -9.66113 20.8916q0 6.09375 13.0059 31.3379q13.0049 25.2441 33.4414 58.7578
q20.4375 33.5137 44.9619 70.9443t47.9346 69.2031q23.4092 31.7725 41.9883 52.2295q18.5791 20.4561 26.7539 20.4561q0 -24.374 -8.1748 -49.6182q-8.1748 -25.2432 -20.4365 -51.3584q-12.2627 -26.1143 -26.7539 -52.6641q-14.4922 -26.5498 -26.3828 -52.6641
q0 -0.870117 7.80273 -2.17578q7.80371 -1.30566 18.5801 -3.48242q10.7754 -2.17578 21.9229 -3.91699t18.5791 -2.61133h31.2129q1.48633 0 7.06055 -0.871094q5.57324 -0.870117 11.8906 0q6.31641 0.871094 11.5186 3.48242t6.68848 9.5752
q2.22949 6.96387 8.1748 21.3271q5.94531 14.3623 13.377 32.208q7.43164 17.8447 15.9775 37.4307q8.54688 19.5859 16.3496 37.4307q7.80371 17.8447 13.749 31.7725l8.91797 20.8916q8.91797 19.1504 15.9775 34.3838q7.06055 15.2334 15.2354 26.1152
q8.1748 10.8809 19.3223 16.5391t28.9834 5.6582q0 -6.96387 -7.06055 -25.6797q-7.05957 -18.7148 -15.9775 -39.6074q-8.91797 -20.8906 -17.0928 -39.1709t-10.4043 -24.374q-0.743164 -6.09375 -6.68848 -19.5859t-13.749 -30.4668q-7.80273 -16.9746 -16.3496 -35.6895
q-8.5459 -18.7158 -14.8633 -34.3848q-6.31641 -15.668 -8.5459 -26.1143q-2.22949 -10.4453 2.22949 -12.1865q12.6338 0 21.9238 6.96387q9.28906 6.96387 21.9229 6.96387q8.1748 0 15.9775 -3.48242q7.80371 -3.48145 7.80371 -15.668q0 -13.0576 -7.80371 -20.457
q-7.80273 -7.39844 -19.6934 -12.1865t-26.7539 -9.13965q-14.8633 -4.35254 -28.9834 -10.4463q-14.1201 -6.09277 -25.6396 -16.5391q-11.5186 -10.4463 -16.7207 -26.9854q-5.94531 -20.0205 -15.6064 -54.4053q-9.66113 -34.3838 -23.4092 -67.4619
q-13.749 -33.0781 -32.6992 -57.4521q-18.9512 -24.373 -43.4756 -24.373q-6.68848 0 -11.8906 1.30566t-7.43164 10.8809z" />
    <glyph glyph-name="questiondown" unicode="&#xbf;" horiz-adv-x="457" 
d="M91.3311 396.447q0 -10.5176 9.97266 -12.9717q9.97363 -2.4541 20.4219 -2.4541q6.64844 0 17.5713 1.40234t20.4219 4.9082q9.49805 3.50586 15.6719 9.11523t3.32422 13.3223q-3.79883 11.2188 -15.1973 15.0752q-11.3975 3.85645 -21.8457 3.85645
q-18.0469 0 -34.1943 -9.46582q-16.1465 -9.46582 -16.1465 -22.7881zM164.468 188.199q0 -37.8633 18.9961 -76.4277q18.9971 -38.5645 47.0166 -75.7266q28.0205 -37.1621 60.3145 -71.5195t59.8389 -63.8066q0 -0.701172 0.475586 -2.10352
q0.474609 -1.40234 0.474609 -2.80469q0 -12.6211 -14.7227 -17.8799t-28.0195 -5.25879q-22.7959 0 -41.3174 5.95996q-18.5225 5.95996 -36.0938 10.8682q-17.5723 4.9082 -36.5684 5.25879q-18.9971 0.350586 -41.793 -11.5693q0 -1.40234 9.97363 -7.01172
q9.97266 -5.60938 23.7451 -12.9717t28.4951 -14.7246t24.2207 -11.5693q16.1475 -6.31055 36.0938 -7.71289t37.9932 -1.40234q39.8926 0 63.6387 11.9199q23.7451 11.9199 23.7451 43.4727q-2.84961 19.6328 -19.9463 45.5762t-40.3672 55.042
q-23.2715 29.0986 -49.3916 60.3008t-45.5918 61.002t-29.4443 56.7949q-9.97363 26.9951 -0.475586 48.0303q-9.49805 4.20703 -16.1465 6.66113t-15.1973 2.4541t-12.8232 -3.50586q-4.27344 -3.50586 -5.69824 -8.41406t-1.4248 -10.167v-8.76465z" />
    <glyph glyph-name="Agrave" unicode="&#xc0;" horiz-adv-x="878" 
d="M660 45q0 25 3.5 50t8 49.5t8 50t3.5 51.5q-33 0 -57 -3t-47 -6t-49 -4.5t-63 0.5q-27 -30 -61.5 -64t-73.5 -63t-82 -48.5t-87 -19.5q-30 0 -57.5 10t-48.5 28t-33 43.5t-12 56.5q0 16 5.5 24.5t23.5 8.5q9 0 16 -16.5t18.5 -37t29.5 -37t49 -16.5q38 0 74.5 14.5t70 37
t63 50.5t53.5 55q-3 25 -18 37t-31.5 24t-29.5 32t-13 63q0 61 37 95.5t101 34.5q19 0 37.5 -4t37.5 -9.5t37.5 -9.5t37.5 -4q12 0 19.5 3t13.5 9t13 16t18 24q6 8 18.5 25.5t27.5 39t32 45.5t32 46t27 39t17 26q11 9 20 11.5t21 2.5t18 -8.5t7.5 -20.5t1 -24.5t-0.5 -19.5
v-9.5t-0.5 -13.5t-0.5 -13.5v-8.5q-3 -10 -9.5 -30t-14.5 -45.5t-16.5 -53.5t-16 -54t-13.5 -46t-8 -30q-1 -5 -3 -16t-4 -23.5t-4 -23.5t-2 -15q9 -2 18 -6t9 -13q0 -10 -7.5 -16t-17.5 -11t-18.5 -12t-9.5 -20q-2 -12 -7 -43.5t-11.5 -67t-12 -66.5t-8.5 -43q-1 -3 -4 -11
t-7 -16t-8 -15t-6 -10q-24 5 -39 12.5t-15 32.5zM643 429q-12 0 -33.5 -17t-42.5 -39.5t-37 -45t-16 -33.5q6 0 23.5 0.5t37 1t37 1.5t24.5 1q4 0 12.5 2t16.5 4t14.5 4t7.5 3q1 0 1 6.5v10.5q0 8 -2.5 25t-8 34t-14 29.5t-20.5 12.5zM362 428q0 -14 10 -32t25 -34t32 -27
t32 -11q14 0 33 17t36.5 39.5t29.5 43.5t12 29q0 17 -11.5 25.5t-27 12t-32.5 3.5h-28q-14 0 -33.5 -2.5t-36.5 -9.5t-29 -20t-12 -34zM662 479q22 -26 41 -56t36 -61l89 320zM777 1062q14 -8 34 -29.5t39 -46.5t34 -48t19 -34q-2 -12 -17.5 -5t-35.5 24.5t-40.5 41t-34 45
t-15 36.5t16.5 16z" />
    <glyph glyph-name="Aacute" unicode="&#xc1;" horiz-adv-x="878" 
d="M660 45q0 25 3.5 50t8 49.5t8 50t3.5 51.5q-33 0 -57 -3t-47 -6t-49 -4.5t-63 0.5q-27 -30 -61.5 -64t-73.5 -63t-82 -48.5t-87 -19.5q-30 0 -57.5 10t-48.5 28t-33 43.5t-12 56.5q0 16 5.5 24.5t23.5 8.5q9 0 16 -16.5t18.5 -37t29.5 -37t49 -16.5q38 0 74.5 14.5t70 37
t63 50.5t53.5 55q-3 25 -18 37t-31.5 24t-29.5 32t-13 63q0 61 37 95.5t101 34.5q19 0 37.5 -4t37.5 -9.5t37.5 -9.5t37.5 -4q12 0 19.5 3t13.5 9t13 16t18 24q6 8 18.5 25.5t27.5 39t32 45.5t32 46t27 39t17 26q11 9 20 11.5t21 2.5t18 -8.5t7.5 -20.5t1 -24.5t-0.5 -19.5
v-9.5t-0.5 -13.5t-0.5 -13.5v-8.5q-3 -10 -9.5 -30t-14.5 -45.5t-16.5 -53.5t-16 -54t-13.5 -46t-8 -30q-1 -5 -3 -16t-4 -23.5t-4 -23.5t-2 -15q9 -2 18 -6t9 -13q0 -10 -7.5 -16t-17.5 -11t-18.5 -12t-9.5 -20q-2 -12 -7 -43.5t-11.5 -67t-12 -66.5t-8.5 -43q-1 -3 -4 -11
t-7 -16t-8 -15t-6 -10q-24 5 -39 12.5t-15 32.5zM643 429q-12 0 -33.5 -17t-42.5 -39.5t-37 -45t-16 -33.5q6 0 23.5 0.5t37 1t37 1.5t24.5 1q4 0 12.5 2t16.5 4t14.5 4t7.5 3q1 0 1 6.5v10.5q0 8 -2.5 25t-8 34t-14 29.5t-20.5 12.5zM362 428q0 -14 10 -32t25 -34t32 -27
t32 -11q14 0 33 17t36.5 39.5t29.5 43.5t12 29q0 17 -11.5 25.5t-27 12t-32.5 3.5h-28q-14 0 -33.5 -2.5t-36.5 -9.5t-29 -20t-12 -34zM662 479q22 -26 41 -56t36 -61l89 320zM937 1055q17 -1 15 -16.5t-14.5 -37t-31.5 -45.5t-38 -41.5t-33.5 -24.5t-16.5 5q4 10 18 34
t32 49.5t36.5 47.5t32.5 29z" />
    <glyph glyph-name="Acircumflex" unicode="&#xc2;" horiz-adv-x="878" 
d="M660 45q0 25 3.5 50t8 49.5t8 50t3.5 51.5q-33 0 -57 -3t-47 -6t-49 -4.5t-63 0.5q-27 -30 -61.5 -64t-73.5 -63t-82 -48.5t-87 -19.5q-30 0 -57.5 10t-48.5 28t-33 43.5t-12 56.5q0 16 5.5 24.5t23.5 8.5q9 0 16 -16.5t18.5 -37t29.5 -37t49 -16.5q38 0 74.5 14.5t70 37
t63 50.5t53.5 55q-3 25 -18 37t-31.5 24t-29.5 32t-13 63q0 61 37 95.5t101 34.5q19 0 37.5 -4t37.5 -9.5t37.5 -9.5t37.5 -4q12 0 19.5 3t13.5 9t13 16t18 24q6 8 18.5 25.5t27.5 39t32 45.5t32 46t27 39t17 26q11 9 20 11.5t21 2.5t18 -8.5t7.5 -20.5t1 -24.5t-0.5 -19.5
v-9.5t-0.5 -13.5t-0.5 -13.5v-8.5q-3 -10 -9.5 -30t-14.5 -45.5t-16.5 -53.5t-16 -54t-13.5 -46t-8 -30q-1 -5 -3 -16t-4 -23.5t-4 -23.5t-2 -15q9 -2 18 -6t9 -13q0 -10 -7.5 -16t-17.5 -11t-18.5 -12t-9.5 -20q-2 -12 -7 -43.5t-11.5 -67t-12 -66.5t-8.5 -43q-1 -3 -4 -11
t-7 -16t-8 -15t-6 -10q-24 5 -39 12.5t-15 32.5zM643 429q-12 0 -33.5 -17t-42.5 -39.5t-37 -45t-16 -33.5q6 0 23.5 0.5t37 1t37 1.5t24.5 1q4 0 12.5 2t16.5 4t14.5 4t7.5 3q1 0 1 6.5v10.5q0 8 -2.5 25t-8 34t-14 29.5t-20.5 12.5zM362 428q0 -14 10 -32t25 -34t32 -27
t32 -11q14 0 33 17t36.5 39.5t29.5 43.5t12 29q0 17 -11.5 25.5t-27 12t-32.5 3.5h-28q-14 0 -33.5 -2.5t-36.5 -9.5t-29 -20t-12 -34zM662 479q22 -26 41 -56t36 -61l89 320zM649 871q0 8 9.5 25.5t24.5 39t33.5 44t36 40.5t32.5 30t23 12q16 0 33.5 -10t35 -26.5t33.5 -36
t28 -39t19.5 -36t7.5 -25.5q-1 -21 -11.5 -19t-25.5 17t-32 37.5t-32 43t-26 32.5t-13 6q-7 0 -9.5 -2t-7.5 -7q-21 -9 -38.5 -26t-31.5 -36t-26 -37t-22.5 -29t-20.5 -12t-20 14z" />
    <glyph glyph-name="Atilde" unicode="&#xc3;" horiz-adv-x="878" 
d="M660 45q0 25 3.5 50t8 49.5t8 50t3.5 51.5q-33 0 -57 -3t-47 -6t-49 -4.5t-63 0.5q-27 -30 -61.5 -64t-73.5 -63t-82 -48.5t-87 -19.5q-30 0 -57.5 10t-48.5 28t-33 43.5t-12 56.5q0 16 5.5 24.5t23.5 8.5q9 0 16 -16.5t18.5 -37t29.5 -37t49 -16.5q38 0 74.5 14.5t70 37
t63 50.5t53.5 55q-3 25 -18 37t-31.5 24t-29.5 32t-13 63q0 61 37 95.5t101 34.5q19 0 37.5 -4t37.5 -9.5t37.5 -9.5t37.5 -4q12 0 19.5 3t13.5 9t13 16t18 24q6 8 18.5 25.5t27.5 39t32 45.5t32 46t27 39t17 26q11 9 20 11.5t21 2.5t18 -8.5t7.5 -20.5t1 -24.5t-0.5 -19.5
v-9.5t-0.5 -13.5t-0.5 -13.5v-8.5q-3 -10 -9.5 -30t-14.5 -45.5t-16.5 -53.5t-16 -54t-13.5 -46t-8 -30q-1 -5 -3 -16t-4 -23.5t-4 -23.5t-2 -15q9 -2 18 -6t9 -13q0 -10 -7.5 -16t-17.5 -11t-18.5 -12t-9.5 -20q-2 -12 -7 -43.5t-11.5 -67t-12 -66.5t-8.5 -43q-1 -3 -4 -11
t-7 -16t-8 -15t-6 -10q-24 5 -39 12.5t-15 32.5zM643 429q-12 0 -33.5 -17t-42.5 -39.5t-37 -45t-16 -33.5q6 0 23.5 0.5t37 1t37 1.5t24.5 1q4 0 12.5 2t16.5 4t14.5 4t7.5 3q1 0 1 6.5v10.5q0 8 -2.5 25t-8 34t-14 29.5t-20.5 12.5zM362 428q0 -14 10 -32t25 -34t32 -27
t32 -11q14 0 33 17t36.5 39.5t29.5 43.5t12 29q0 17 -11.5 25.5t-27 12t-32.5 3.5h-28q-14 0 -33.5 -2.5t-36.5 -9.5t-29 -20t-12 -34zM662 479q22 -26 41 -56t36 -61l89 320zM951 928q-23 -2 -39.5 5.5t-31 19.5t-28 25.5t-30 23.5t-38 13.5t-50.5 -4.5q-2 0 -10 -2
t-16.5 -4t-16 -4t-9.5 -2q-8 0 -11 7t-3 13q0 8 14 18t32 19t35 15t23 6q31 0 52.5 -14.5t41 -31.5t42 -31.5t55.5 -14.5q42 0 62.5 11t30 24.5t12.5 25t11 11.5q11 0 23 -3t12 -18q-7 -29 -22.5 -47t-37.5 -30t-48.5 -18.5t-54.5 -12.5z" />
    <glyph glyph-name="Adieresis" unicode="&#xc4;" horiz-adv-x="878" 
d="M660 45q0 25 3.5 50t8 49.5t8 50t3.5 51.5q-33 0 -57 -3t-47 -6t-49 -4.5t-63 0.5q-27 -30 -61.5 -64t-73.5 -63t-82 -48.5t-87 -19.5q-30 0 -57.5 10t-48.5 28t-33 43.5t-12 56.5q0 16 5.5 24.5t23.5 8.5q9 0 16 -16.5t18.5 -37t29.5 -37t49 -16.5q38 0 74.5 14.5t70 37
t63 50.5t53.5 55q-3 25 -18 37t-31.5 24t-29.5 32t-13 63q0 61 37 95.5t101 34.5q19 0 37.5 -4t37.5 -9.5t37.5 -9.5t37.5 -4q12 0 19.5 3t13.5 9t13 16t18 24q6 8 18.5 25.5t27.5 39t32 45.5t32 46t27 39t17 26q11 9 20 11.5t21 2.5t18 -8.5t7.5 -20.5t1 -24.5t-0.5 -19.5
v-9.5t-0.5 -13.5t-0.5 -13.5v-8.5q-3 -10 -9.5 -30t-14.5 -45.5t-16.5 -53.5t-16 -54t-13.5 -46t-8 -30q-1 -5 -3 -16t-4 -23.5t-4 -23.5t-2 -15q9 -2 18 -6t9 -13q0 -10 -7.5 -16t-17.5 -11t-18.5 -12t-9.5 -20q-2 -12 -7 -43.5t-11.5 -67t-12 -66.5t-8.5 -43q-1 -3 -4 -11
t-7 -16t-8 -15t-6 -10q-24 5 -39 12.5t-15 32.5zM643 429q-12 0 -33.5 -17t-42.5 -39.5t-37 -45t-16 -33.5q6 0 23.5 0.5t37 1t37 1.5t24.5 1q4 0 12.5 2t16.5 4t14.5 4t7.5 3q1 0 1 6.5v10.5q0 8 -2.5 25t-8 34t-14 29.5t-20.5 12.5zM362 428q0 -14 10 -32t25 -34t32 -27
t32 -11q14 0 33 17t36.5 39.5t29.5 43.5t12 29q0 17 -11.5 25.5t-27 12t-32.5 3.5h-28q-14 0 -33.5 -2.5t-36.5 -9.5t-29 -20t-12 -34zM662 479q22 -26 41 -56t36 -61l89 320zM796 887q-27 0 -34.5 9.5t-2 21.5t19 24t27.5 17.5t25 1t11 -25.5q0 -22 -12.5 -35t-33.5 -13z
M967 894q-27 0 -34.5 9.5t-2 21.5t19 24t27.5 17.5t25 1t11 -25.5q0 -22 -12.5 -35t-33.5 -13z" />
    <glyph glyph-name="Aring" unicode="&#xc5;" horiz-adv-x="878" 
d="M781 838q0 2 0.5 11.5t0.5 11.5q25 55 63.5 101t88.5 82q1 0 4.5 0.5t5.5 0.5q20 0 33.5 -8.5t22 -22t12 -30t3.5 -32.5q0 -29 -14 -60.5t-37.5 -57.5t-54.5 -43q-7 -4 -15 -8q1 -3 1 -7q2 -12 1.5 -24.5t-0.5 -19.5v-10q0 -6 -0.5 -13t-0.5 -14v-8q-3 -10 -9.5 -30
t-14.5 -45.5t-16.5 -53.5t-16 -54t-13.5 -46t-8 -30q-1 -5 -3 -16t-4 -23.5t-4 -23.5t-2 -15q9 -2 18 -6t9 -13q0 -10 -7.5 -16t-17.5 -11t-18.5 -12t-9.5 -20q-2 -12 -7 -43.5t-11.5 -67t-12 -66.5t-8.5 -43q-1 -3 -4 -11t-7 -16t-8 -15t-6 -10q-24 5 -39 12.5t-15 32.5
t3.5 50t8 49.5t8 50t3.5 51.5q-33 0 -57 -3t-47 -6t-49 -4.5t-63 0.5q-27 -30 -61.5 -64t-73.5 -63t-82 -48.5t-87 -19.5q-30 0 -57.5 10t-48.5 28t-33 43.5t-12 56.5q0 16 5.5 24.5t23.5 8.5q9 0 16 -16.5t18.5 -37t29.5 -37t49 -16.5q38 0 74.5 14.5t70 37t63 50.5
t53.5 55q-3 25 -18 37t-31.5 24t-29.5 32t-13 63q0 61 37 95.5t101 34.5q19 0 37.5 -4t37.5 -9.5t37.5 -9.5t37.5 -4q12 0 19.5 3t13.5 9t13 16t18 24q6 8 18.5 25.5t27.5 39t32 45.5t32 46t27 39l8 12q-14 4 -23 14q-16 17 -16 47zM362 428q0 -14 10 -32t25 -34t32 -27
t32 -11q14 0 33 17t36.5 39.5t29.5 43.5t12 29q0 17 -11.5 25.5t-27 12t-32.5 3.5h-28q-14 0 -33.5 -2.5t-36.5 -9.5t-29 -20t-12 -34zM662 479q22 -26 41 -56t36 -61l89 320zM643 429q-12 0 -33.5 -17t-42.5 -39.5t-37 -45t-16 -33.5q6 0 23.5 0.5t37 1t37 1.5t24.5 1
q4 0 12.5 2t16.5 4t14.5 4t7.5 3q1 0 1 6v11q0 8 -2.5 25t-8 34t-14 29.5t-20.5 12.5zM842 847q0 -8 6.5 -12t13.5 -4q19 0 38 10t33 25.5t23 34.5t9 36q0 8 -1 18t-5.5 18t-12.5 12t-23 1q-11 -2 -25 -19t-26.5 -39.5t-21 -45t-8.5 -35.5z" />
    <glyph glyph-name="AE" unicode="&#xc6;" horiz-adv-x="1156" 
d="M660 45q0 25 3.5 50t8 49.5t8 50t3.5 51.5q-33 0 -57 -3t-47 -6t-49 -4.5t-63 0.5q-27 -30 -61.5 -64t-73.5 -63t-82 -48.5t-87 -19.5q-30 0 -57.5 10t-48.5 28t-33 43.5t-12 56.5q0 16 5.5 24.5t23.5 8.5q9 0 16 -16.5t18.5 -37t29.5 -37t49 -16.5q38 0 74.5 14.5t70 37
t63 50.5t53.5 55q-3 25 -18 37t-31.5 24t-29.5 32t-13 63q0 61 37 95.5t101 34.5q19 0 37.5 -4t37.5 -9.5t37.5 -9.5t37.5 -4q12 0 19.5 3t13.5 9t13 16t18 24q6 8 18.5 25.5t27.5 39t32 45.5t32 46t27 39t17 26q11 9 20 11.5t21 2.5t18 -8.5t7.5 -20.5t1 -24.5t-0.5 -19.5
v-10q0 -6 -0.5 -13t-0.5 -14v-8q-3 -10 -9.5 -30t-14.5 -45.5t-16.5 -53.5t-16 -54t-13.5 -46t-8 -30q-1 -5 -3 -16t-4 -23.5t-4 -23.5t-2 -15q9 -2 18 -6q4 -2 6 -5q29 28 59 52q40 32 70 59q0 6 -5.5 16t-8.5 35q0 44 20 80.5t52.5 62t73 39.5t82.5 14q18 0 30 -13.5
t19 -32.5t9.5 -39t2.5 -33h-35q0 11 -2.5 23t-8 21.5t-14 16t-21.5 6.5q-23 0 -50 -12.5t-50.5 -32t-39.5 -44.5t-16 -50q0 -13 8.5 -18.5t22 -7.5t28.5 -2t28.5 -1.5t22 -7.5t8.5 -19q0 -8 -2 -15.5t-12 -12.5q-58 -15 -104.5 -35.5t-84.5 -49t-70.5 -67.5t-63.5 -93
q0 -2 -0.5 -10t-0.5 -10q0 -36 20.5 -54.5t54.5 -18.5q38 0 85.5 12t92.5 26t82.5 26t55.5 12q-1 -22 -19 -42t-47 -36.5t-65.5 -29.5t-74 -21t-73 -11t-62.5 0q-26 0 -45.5 12t-32.5 31l-4 6q-3 -12 -4 -18q-1 -3 -4 -11t-7 -16t-8 -15t-6 -10q-24 5 -39 12.5t-15 32.5z
M362 428q0 -14 10 -32t25 -34t32 -27t32 -11q14 0 33 17t36.5 39.5t29.5 43.5t12 29q0 17 -11.5 25.5t-27 12t-32.5 3.5h-28q-14 0 -33.5 -2.5t-36.5 -9.5t-29 -20t-12 -34zM662 479q22 -26 41 -56t36 -61l89 320zM643 429q-12 0 -33.5 -17t-42.5 -39.5t-37 -45t-16 -33.5
q6 0 23.5 0.5t37 1t37 1.5t24.5 1q4 0 12.5 2t16.5 4t14.5 4t7.5 3q1 0 1 6v11q0 8 -2.5 25t-8 34t-14 29.5t-20.5 12.5z" />
    <glyph glyph-name="Ccedilla" unicode="&#xc7;" horiz-adv-x="442" 
d="M50 -168q0 14 4 23t20 9h7q5 0 7 -1q-1 -31 11 -46.5t41 -15.5q25 0 41 3.5t25 12.5t12.5 25.5t3.5 43.5q0 16 -9.5 24t-21 14t-21 12t-9.5 18q-2 30 2 48q-17 -3 -27 -3q-22 0 -44 8.5t-39.5 23.5t-28.5 35.5t-11 44.5q7 58 25 110.5t44 102t58 97.5t68 97q21 27 46 55
t54 51t62.5 37.5t70.5 14.5q20 0 31 -2.5t16.5 -10t6.5 -21.5t0 -36q0 -25 -9 -51t-25 -49t-38 -40.5t-47 -25.5v14q0 21 9.5 40t21.5 38.5t21.5 40.5t9.5 45q-11 0 -19 1.5t-14.5 2t-13 -2t-15.5 -10.5q-49 -40 -100.5 -93.5t-93.5 -115.5t-68.5 -129.5t-26.5 -135.5v-10
l1 -14q1 -7 2 -13t1 -7q11 -11 26.5 -13t23.5 -2q43 0 80.5 15t73.5 32.5t72.5 32.5t77.5 15q0 -16 -18.5 -35.5t-48 -38.5t-65.5 -36.5t-71 -31.5q-19 -8 -36 -14q4 -23 -6 -61q11 -8 23 -14.5t21.5 -13.5t16 -16t6.5 -22q0 -70 -28 -100t-94 -30q-38 0 -66.5 18t-28.5 56z
" />
    <glyph glyph-name="Egrave" unicode="&#xc8;" horiz-adv-x="435" 
d="M12 131q3 48 29 90.5t61.5 79.5t75 68.5t69.5 58.5q0 6 -5.5 16t-8.5 35q0 44 20 80.5t52.5 62t73 39.5t82.5 14q18 0 30 -13.5t19 -32.5t9.5 -39t2.5 -33h-35q0 11 -2.5 23t-8 21.5t-14 16t-21.5 6.5q-23 0 -50 -12.5t-50.5 -32t-39.5 -44.5t-16 -50q0 -13 8.5 -18.5
t22 -7.5t28.5 -2t28.5 -1.5t22 -7.5t8.5 -19q0 -8 -2 -15.5t-12 -12.5q-58 -15 -104.5 -35.5t-84.5 -49t-70.5 -67.5t-63.5 -93q0 -2 -0.5 -10t-0.5 -10q0 -36 20.5 -54.5t54.5 -18.5q38 0 85.5 12t92.5 26t82.5 26t55.5 12q-1 -22 -19 -42t-47 -36.5t-65.5 -29.5t-74 -21
t-73 -11t-62.5 0q-26 0 -45.5 12t-32 31t-19 42.5t-6.5 46.5zM375 943q14 -8 34 -29.5t39 -46.5t34 -48t19 -34q-2 -12 -17.5 -5t-35.5 24.5t-40.5 41t-34 45t-15 36.5t16.5 16z" />
    <glyph glyph-name="Eacute" unicode="&#xc9;" horiz-adv-x="435" 
d="M12 131q3 48 29 90.5t61.5 79.5t75 68.5t69.5 58.5q0 6 -5.5 16t-8.5 35q0 44 20 80.5t52.5 62t73 39.5t82.5 14q18 0 30 -13.5t19 -32.5t9.5 -39t2.5 -33h-35q0 11 -2.5 23t-8 21.5t-14 16t-21.5 6.5q-23 0 -50 -12.5t-50.5 -32t-39.5 -44.5t-16 -50q0 -13 8.5 -18.5
t22 -7.5t28.5 -2t28.5 -1.5t22 -7.5t8.5 -19q0 -8 -2 -15.5t-12 -12.5q-58 -15 -104.5 -35.5t-84.5 -49t-70.5 -67.5t-63.5 -93q0 -2 -0.5 -10t-0.5 -10q0 -36 20.5 -54.5t54.5 -18.5q38 0 85.5 12t92.5 26t82.5 26t55.5 12q-1 -22 -19 -42t-47 -36.5t-65.5 -29.5t-74 -21
t-73 -11t-62.5 0q-26 0 -45.5 12t-32 31t-19 42.5t-6.5 46.5zM439 890q17 -1 15 -16.5t-14.5 -37t-31.5 -45.5t-38 -41.5t-33.5 -24.5t-16.5 5q4 10 18 34t32 49.5t36.5 47.5t32.5 29z" />
    <glyph glyph-name="Ecircumflex" unicode="&#xca;" horiz-adv-x="435" 
d="M12 131q3 48 29 90.5t61.5 79.5t75 68.5t69.5 58.5q0 6 -5.5 16t-8.5 35q0 44 20 80.5t52.5 62t73 39.5t82.5 14q18 0 30 -13.5t19 -32.5t9.5 -39t2.5 -33h-35q0 11 -2.5 23t-8 21.5t-14 16t-21.5 6.5q-23 0 -50 -12.5t-50.5 -32t-39.5 -44.5t-16 -50q0 -13 8.5 -18.5
t22 -7.5t28.5 -2t28.5 -1.5t22 -7.5t8.5 -19q0 -8 -2 -15.5t-12 -12.5q-58 -15 -104.5 -35.5t-84.5 -49t-70.5 -67.5t-63.5 -93q0 -2 -0.5 -10t-0.5 -10q0 -36 20.5 -54.5t54.5 -18.5q38 0 85.5 12t92.5 26t82.5 26t55.5 12q-1 -22 -19 -42t-47 -36.5t-65.5 -29.5t-74 -21
t-73 -11t-62.5 0q-26 0 -45.5 12t-32 31t-19 42.5t-6.5 46.5zM234 766q0 8 9.5 25.5t24.5 39t33.5 44t36 40.5t32.5 30t23 12q16 0 33.5 -10t35 -26.5t33.5 -36t28 -39t19.5 -36t7.5 -25.5q-1 -21 -11.5 -19t-25.5 17t-32 37.5t-32 43t-26 32.5t-13 6q-7 0 -9.5 -2t-7.5 -7
q-21 -9 -38.5 -26t-31.5 -36t-26 -37t-22.5 -29t-20.5 -12t-20 14z" />
    <glyph glyph-name="Edieresis" unicode="&#xcb;" horiz-adv-x="435" 
d="M12 131q3 48 29 90.5t61.5 79.5t75 68.5t69.5 58.5q0 6 -5.5 16t-8.5 35q0 44 20 80.5t52.5 62t73 39.5t82.5 14q18 0 30 -13.5t19 -32.5t9.5 -39t2.5 -33h-35q0 11 -2.5 23t-8 21.5t-14 16t-21.5 6.5q-23 0 -50 -12.5t-50.5 -32t-39.5 -44.5t-16 -50q0 -13 8.5 -18.5
t22 -7.5t28.5 -2t28.5 -1.5t22 -7.5t8.5 -19q0 -8 -2 -15.5t-12 -12.5q-58 -15 -104.5 -35.5t-84.5 -49t-70.5 -67.5t-63.5 -93q0 -2 -0.5 -10t-0.5 -10q0 -36 20.5 -54.5t54.5 -18.5q38 0 85.5 12t92.5 26t82.5 26t55.5 12q-1 -22 -19 -42t-47 -36.5t-65.5 -29.5t-74 -21
t-73 -11t-62.5 0q-26 0 -45.5 12t-32 31t-19 42.5t-6.5 46.5zM303 741q-27 0 -34.5 9.5t-2 21.5t19 24t27.5 17.5t25 1t11 -25.5q0 -22 -12.5 -35t-33.5 -13zM474 748q-27 0 -34.5 9.5t-2 21.5t19 24t27.5 17.5t25 1t11 -25.5q0 -22 -12.5 -35t-33.5 -13z" />
    <glyph glyph-name="Igrave" unicode="&#xcc;" horiz-adv-x="821" 
d="M13 233q-1 4 0 11.5t3 16t5 15.5t6 9q0 1 6.5 2.5t10.5 1.5q16 0 25 -9t17.5 -19.5t20 -19.5t32.5 -9q56 0 103.5 19t89 41.5t79 41.5t73.5 19q0 -14 -12.5 -30t-30 -31t-36 -27t-29.5 -18q-33 -20 -60 -33.5t-55 -23t-59 -14.5t-72 -7q4 -5 15 -16l23.5 -23.5
l23.5 -23.5t16 -15q9 -8 21 -11.5t24.5 -4t25 0.5t23.5 1q25 0 58.5 3.5t65.5 13t57.5 27.5t35.5 48q2 6 7.5 25t13.5 44t17 54t17 54t14.5 44t8.5 25q18 36 42.5 75.5t54.5 74t64 61t71 36.5q35 0 50.5 -24t15.5 -54q0 -75 -31 -146t-78.5 -135t-105 -118t-110.5 -94
q0 -3 -1.5 -8.5t-3.5 -11.5t-4 -11.5t-3 -7.5q-1 -1 -2 -1h-3q-2 0 -4.5 0.5t-3.5 0.5q-5 1 -19.5 6t-19.5 7q-9 -3 -31 -11t-47 -16t-47 -15t-31 -10q-2 -1 -10 -2.5t-18.5 -3.5t-20.5 -4l-15 -3h-7q-46 0 -87 22.5t-74.5 57t-60 75.5t-44.5 78zM848 601q-33 0 -65.5 -22.5
t-62 -58.5t-54.5 -81.5t-43.5 -91t-29 -88t-10.5 -71.5q0 -2 0.5 -4t0.5 -3q57 34 105 78.5t83.5 98.5t55.5 115t20 128zM727 929q14 -8 34 -29.5t39 -46.5t34 -48t19 -34q-2 -12 -17.5 -5t-35.5 24.5t-40.5 41t-34 45t-15 36.5t16.5 16z" />
    <glyph glyph-name="Iacute" unicode="&#xcd;" horiz-adv-x="821" 
d="M13 233q-1 4 0 11.5t3 16t5 15.5t6 9q0 1 6.5 2.5t10.5 1.5q16 0 25 -9t17.5 -19.5t20 -19.5t32.5 -9q56 0 103.5 19t89 41.5t79 41.5t73.5 19q0 -14 -12.5 -30t-30 -31t-36 -27t-29.5 -18q-33 -20 -60 -33.5t-55 -23t-59 -14.5t-72 -7q4 -5 15 -16l23.5 -23.5
l23.5 -23.5t16 -15q9 -8 21 -11.5t24.5 -4t25 0.5t23.5 1q25 0 58.5 3.5t65.5 13t57.5 27.5t35.5 48q2 6 7.5 25t13.5 44t17 54t17 54t14.5 44t8.5 25q18 36 42.5 75.5t54.5 74t64 61t71 36.5q35 0 50.5 -24t15.5 -54q0 -75 -31 -146t-78.5 -135t-105 -118t-110.5 -94
q0 -3 -1.5 -8.5t-3.5 -11.5t-4 -11.5t-3 -7.5q-1 -1 -2 -1h-3q-2 0 -4.5 0.5t-3.5 0.5q-5 1 -19.5 6t-19.5 7q-9 -3 -31 -11t-47 -16t-47 -15t-31 -10q-2 -1 -10 -2.5t-18.5 -3.5t-20.5 -4l-15 -3h-7q-46 0 -87 22.5t-74.5 57t-60 75.5t-44.5 78zM848 601q-33 0 -65.5 -22.5
t-62 -58.5t-54.5 -81.5t-43.5 -91t-29 -88t-10.5 -71.5q0 -2 0.5 -4t0.5 -3q57 34 105 78.5t83.5 98.5t55.5 115t20 128zM847 890q17 -1 15 -16.5t-14.5 -37t-31.5 -45.5t-38 -41.5t-33.5 -24.5t-16.5 5q4 10 18 34t32 49.5t36.5 47.5t32.5 29z" />
    <glyph glyph-name="Icircumflex" unicode="&#xce;" horiz-adv-x="821" 
d="M13 233q-1 4 0 11.5t3 16t5 15.5t6 9q0 1 6.5 2.5t10.5 1.5q16 0 25 -9t17.5 -19.5t20 -19.5t32.5 -9q56 0 103.5 19t89 41.5t79 41.5t73.5 19q0 -14 -12.5 -30t-30 -31t-36 -27t-29.5 -18q-33 -20 -60 -33.5t-55 -23t-59 -14.5t-72 -7q4 -5 15 -16l23.5 -23.5
l23.5 -23.5t16 -15q9 -8 21 -11.5t24.5 -4t25 0.5t23.5 1q25 0 58.5 3.5t65.5 13t57.5 27.5t35.5 48q2 6 7.5 25t13.5 44t17 54t17 54t14.5 44t8.5 25q18 36 42.5 75.5t54.5 74t64 61t71 36.5q35 0 50.5 -24t15.5 -54q0 -75 -31 -146t-78.5 -135t-105 -118t-110.5 -94
q0 -3 -1.5 -8.5t-3.5 -11.5t-4 -11.5t-3 -7.5q-1 -1 -2 -1h-3q-2 0 -4.5 0.5t-3.5 0.5q-5 1 -19.5 6t-19.5 7q-9 -3 -31 -11t-47 -16t-47 -15t-31 -10q-2 -1 -10 -2.5t-18.5 -3.5t-20.5 -4l-15 -3h-7q-46 0 -87 22.5t-74.5 57t-60 75.5t-44.5 78zM848 601q-33 0 -65.5 -22.5
t-62 -58.5t-54.5 -81.5t-43.5 -91t-29 -88t-10.5 -71.5q0 -2 0.5 -4t0.5 -3q57 34 105 78.5t83.5 98.5t55.5 115t20 128zM645 766q0 8 9.5 25.5t24.5 39t33.5 44t36 40.5t32.5 30t23 12q16 0 33.5 -10t35 -26.5t33.5 -36t28 -39t19.5 -36t7.5 -25.5q-1 -21 -11.5 -19
t-25.5 17t-32 37.5t-32 43t-26 32.5t-13 6q-7 0 -9.5 -2t-7.5 -7q-21 -9 -38.5 -26t-31.5 -36t-26 -37t-22.5 -29t-20.5 -12t-20 14z" />
    <glyph glyph-name="Idieresis" unicode="&#xcf;" horiz-adv-x="821" 
d="M13 233q-1 4 0 11.5t3 16t5 15.5t6 9q0 1 6.5 2.5t10.5 1.5q16 0 25 -9t17.5 -19.5t20 -19.5t32.5 -9q56 0 103.5 19t89 41.5t79 41.5t73.5 19q0 -14 -12.5 -30t-30 -31t-36 -27t-29.5 -18q-33 -20 -60 -33.5t-55 -23t-59 -14.5t-72 -7q4 -5 15 -16l23.5 -23.5
l23.5 -23.5t16 -15q9 -8 21 -11.5t24.5 -4t25 0.5t23.5 1q25 0 58.5 3.5t65.5 13t57.5 27.5t35.5 48q2 6 7.5 25t13.5 44t17 54t17 54t14.5 44t8.5 25q18 36 42.5 75.5t54.5 74t64 61t71 36.5q35 0 50.5 -24t15.5 -54q0 -75 -31 -146t-78.5 -135t-105 -118t-110.5 -94
q0 -3 -1.5 -8.5t-3.5 -11.5t-4 -11.5t-3 -7.5q-1 -1 -2 -1h-3q-2 0 -4.5 0.5t-3.5 0.5q-5 1 -19.5 6t-19.5 7q-9 -3 -31 -11t-47 -16t-47 -15t-31 -10q-2 -1 -10 -2.5t-18.5 -3.5t-20.5 -4l-15 -3h-7q-46 0 -87 22.5t-74.5 57t-60 75.5t-44.5 78zM848 601q-33 0 -65.5 -22.5
t-62 -58.5t-54.5 -81.5t-43.5 -91t-29 -88t-10.5 -71.5q0 -2 0.5 -4t0.5 -3q57 34 105 78.5t83.5 98.5t55.5 115t20 128zM712 726q-27 0 -34.5 9.5t-2 21.5t19 24t27.5 17.5t25 1t11 -25.5q0 -22 -12.5 -35t-33.5 -13zM883 733q-27 0 -34.5 9.5t-2 21.5t19 24t27.5 17.5
t25 1t11 -25.5q0 -22 -12.5 -35t-33.5 -13z" />
    <glyph glyph-name="Eth" unicode="&#xd0;" horiz-adv-x="752" 
d="M294 412q26 4 56 7t65 6q3 31 11.5 72.5t22.5 85t33.5 86t43.5 75.5t53 53.5t62 20.5q3 0 13.5 -1t13.5 -1q16 -20 28 -38t20.5 -36t12.5 -38t4 -45q0 -31 -9.5 -90t-27.5 -129.5t-44 -144t-60 -133.5t-75 -98.5t-88 -38.5q-32 0 -54.5 10t-39.5 24.5t-31 32t-29 32
t-33 24.5t-44 10q-27 0 -47 -17t-35 -42t-26 -52t-19 -47q-2 0 -6.5 -0.5t-6.5 -0.5q-5 0 -13.5 2t-17 5.5t-15 8.5t-6.5 11q0 15 10 33.5t23.5 35t26 29.5t18.5 18l104 192q-35 4 -56.5 11.5t-20.5 16.5t27.5 19.5t87.5 20.5l78 143q10 8 18 20.5t16.5 24t19 19.5t25.5 8
q0 -16 -3.5 -38.5t-10.5 -33.5zM586 429q-30 -21 -59 -37.5t-55 -30.5q1 -18 6 -33.5t10.5 -31.5t9.5 -31.5t4 -33.5q-23 0 -38.5 9.5t-24.5 25t-13 34.5t-5 38q-42 -7 -87 -9t-86 0l-68 -121q30 12 55.5 7.5t47.5 -17.5t41.5 -31.5t37 -35.5t33.5 -29t32 -12q35 0 68 35
t63 90t55 122t43 130.5t28 116t10 78.5q0 14 -2.5 30.5t-9.5 30t-18.5 22.5t-29.5 9q-33 0 -59 -34.5t-46 -84.5t-33 -105.5t-19 -98.5l48 25q8 0 17.5 0.5t18 -2t15.5 -8t10 -17.5z" />
    <glyph glyph-name="Ntilde" unicode="&#xd1;" horiz-adv-x="891" 
d="M602 56q0 55 4 110.5t9.5 110.5t9.5 110.5t4 111.5v71q-2 -2 -6 -7.5t-8.5 -11.5t-8 -11.5t-4.5 -8.5q-4 -7 -15.5 -28.5t-27.5 -51t-34 -62.5t-34 -62.5t-28.5 -51t-16.5 -28.5q-20 -34 -43 -75t-51.5 -77t-64.5 -60t-82 -24q-47 0 -83.5 20.5t-62.5 54t-39.5 75.5
t-13.5 86q0 5 5 19.5t8 18.5q16 -13 28 -32.5t22.5 -41.5t21 -43.5t24 -39t31.5 -28.5t44 -11q34 0 59.5 12.5t46.5 33t41 46t45 52.5q8 14 24.5 42t37.5 64t43.5 75.5t42.5 75t36 64t24 42.5q2 4 9.5 21t16 37t16 37t9.5 22q6 13 19 13q18 0 25.5 -19t9.5 -43t0.5 -45
t-1.5 -25q0 -71 -7 -141t-7 -142v-85q7 16 22 52t34 82t40 97.5t40.5 97.5t34.5 81.5t23 50.5q15 29 37 65.5t49.5 68.5t61.5 53.5t73 21.5q-57 -38 -106 -106.5t-90 -153t-75.5 -176.5t-63 -176t-52 -152.5t-43 -104.5t-35 -33t-28.5 62zM766 859q-23 -2 -39.5 5.5
t-31 19.5t-28 25.5t-30 23.5t-38 13.5t-50.5 -4.5q-2 0 -10 -2t-16.5 -4t-16 -4t-9.5 -2q-8 0 -11 7t-3 13q0 8 14 18t32 19t35 15t23 6q31 0 52.5 -14.5t41 -31.5t42 -31.5t55.5 -14.5q42 0 62.5 11t30 24.5t12.5 25t11 11.5q11 0 23 -3t12 -18q-7 -29 -22.5 -47t-37.5 -30
t-48.5 -18.5t-54.5 -12.5z" />
    <glyph glyph-name="Ograve" unicode="&#xd2;" horiz-adv-x="505" 
d="M84 -1q-27 1 -42.5 13.5t-21.5 31t-5.5 41.5t4.5 45q52 158 100 267.5t91 179t81 105t70.5 46.5t59 2.5t47.5 -26.5t35.5 -40.5t22.5 -39.5q-4 -100 -38 -198t-92.5 -182t-138 -148t-173.5 -97zM343 635q-22 -5 -49.5 -41t-56 -90t-56.5 -119.5t-51 -127.5t-40 -115
t-23 -82q37 0 81.5 22t84.5 54.5t70 69.5t40 66v3q0 2 0.5 2.5t0.5 1.5t-0.5 2t-0.5 2v2q-22 39 -33.5 84t-11.5 91t11 91t34 84zM460 663q-54 -16 -80.5 -55.5t-33.5 -89t2 -102t27 -93.5q107 117 112 280q0 9 0.5 19t-1 18.5t-7.5 15t-19 7.5zM354 975q14 -8 34 -29.5
t39 -46.5t34 -48t19 -34q-2 -12 -17.5 -5t-35.5 24.5t-40.5 41t-34 45t-15 36.5t16.5 16z" />
    <glyph glyph-name="Oacute" unicode="&#xd3;" horiz-adv-x="505" 
d="M84 -1q-27 1 -42.5 13.5t-21.5 31t-5.5 41.5t4.5 45q52 158 100 267.5t91 179t81 105t70.5 46.5t59 2.5t47.5 -26.5t35.5 -40.5t22.5 -39.5q-4 -100 -38 -198t-92.5 -182t-138 -148t-173.5 -97zM343 635q-22 -5 -49.5 -41t-56 -90t-56.5 -119.5t-51 -127.5t-40 -115
t-23 -82q37 0 81.5 22t84.5 54.5t70 69.5t40 66v3q0 2 0.5 2.5t0.5 1.5t-0.5 2t-0.5 2v2q-22 39 -33.5 84t-11.5 91t11 91t34 84zM460 663q-54 -16 -80.5 -55.5t-33.5 -89t2 -102t27 -93.5q107 117 112 280q0 9 0.5 19t-1 18.5t-7.5 15t-19 7.5zM452 954q17 -1 15 -16.5
t-14.5 -37t-31.5 -45.5t-38 -41.5t-33.5 -24.5t-16.5 5q4 10 18 34t32 49.5t36.5 47.5t32.5 29z" />
    <glyph glyph-name="Ocircumflex" unicode="&#xd4;" horiz-adv-x="505" 
d="M84 -1q-27 1 -42.5 13.5t-21.5 31t-5.5 41.5t4.5 45q52 158 100 267.5t91 179t81 105t70.5 46.5t59 2.5t47.5 -26.5t35.5 -40.5t22.5 -39.5q-4 -100 -38 -198t-92.5 -182t-138 -148t-173.5 -97zM343 635q-22 -5 -49.5 -41t-56 -90t-56.5 -119.5t-51 -127.5t-40 -115
t-23 -82q37 0 81.5 22t84.5 54.5t70 69.5t40 66v3q0 2 0.5 2.5t0.5 1.5t-0.5 2t-0.5 2v2q-22 39 -33.5 84t-11.5 91t11 91t34 84zM460 663q-54 -16 -80.5 -55.5t-33.5 -89t2 -102t27 -93.5q107 117 112 280q0 9 0.5 19t-1 18.5t-7.5 15t-19 7.5zM241 757q0 8 9.5 25.5
t24.5 39t33.5 44t36 40.5t32.5 30t23 12q16 0 33.5 -10t35 -26.5t33.5 -36t28 -39t19.5 -36t7.5 -25.5q-1 -21 -11.5 -19t-25.5 17t-32 37.5t-32 43t-26 32.5t-13 6q-7 0 -9.5 -2t-7.5 -7q-21 -9 -38.5 -26t-31.5 -36t-26 -37t-22.5 -29t-20.5 -12t-20 14z" />
    <glyph glyph-name="Otilde" unicode="&#xd5;" horiz-adv-x="505" 
d="M84 -1q-27 1 -42.5 13.5t-21.5 31t-5.5 41.5t4.5 45q52 158 100 267.5t91 179t81 105t70.5 46.5t59 2.5t47.5 -26.5t35.5 -40.5t22.5 -39.5q-4 -100 -38 -198t-92.5 -182t-138 -148t-173.5 -97zM343 635q-22 -5 -49.5 -41t-56 -90t-56.5 -119.5t-51 -127.5t-40 -115
t-23 -82q37 0 81.5 22t84.5 54.5t70 69.5t40 66v3q0 2 0.5 2.5t0.5 1.5t-0.5 2t-0.5 2v2q-22 39 -33.5 84t-11.5 91t11 91t34 84zM460 663q-54 -16 -80.5 -55.5t-33.5 -89t2 -102t27 -93.5q107 117 112 280q0 9 0.5 19t-1 18.5t-7.5 15t-19 7.5zM458 800q-23 -2 -39.5 5.5
t-31 19.5t-28 25.5t-30 23.5t-38 13.5t-50.5 -4.5q-2 0 -10 -2t-16.5 -4t-16 -4t-9.5 -2q-8 0 -11 7t-3 13q0 8 14 18t32 19t35 15t23 6q31 0 52.5 -14.5t41 -31.5t42 -31.5t55.5 -14.5q42 0 62.5 11t30 24.5t12.5 25t11 11.5q11 0 23 -3t12 -18q-7 -29 -22.5 -47t-37.5 -30
t-48.5 -18.5t-54.5 -12.5z" />
    <glyph glyph-name="Odieresis" unicode="&#xd6;" horiz-adv-x="505" 
d="M84 -1q-27 1 -42.5 13.5t-21.5 31t-5.5 41.5t4.5 45q52 158 100 267.5t91 179t81 105t70.5 46.5t59 2.5t47.5 -26.5t35.5 -40.5t22.5 -39.5q-4 -100 -38 -198t-92.5 -182t-138 -148t-173.5 -97zM343 635q-22 -5 -49.5 -41t-56 -90t-56.5 -119.5t-51 -127.5t-40 -115
t-23 -82q37 0 81.5 22t84.5 54.5t70 69.5t40 66v3q0 2 0.5 2.5t0.5 1.5t-0.5 2t-0.5 2v2q-22 39 -33.5 84t-11.5 91t11 91t34 84zM460 663q-54 -16 -80.5 -55.5t-33.5 -89t2 -102t27 -93.5q107 117 112 280q0 9 0.5 19t-1 18.5t-7.5 15t-19 7.5zM313 800q-27 0 -34.5 9.5
t-2 21.5t19 24t27.5 17.5t25 1t11 -25.5q0 -22 -12.5 -35t-33.5 -13zM484 807q-27 0 -34.5 9.5t-2 21.5t19 24t27.5 17.5t25 1t11 -25.5q0 -22 -12.5 -35t-33.5 -13z" />
    <glyph glyph-name="multiply" unicode="&#xd7;" horiz-adv-x="397" 
d="M46 140q40 43 61 68.5t31 39.5t11.5 20.5t1.5 11.5q0 41 -15.5 56.5t-52.5 15.5q0 6 2.5 14.5t5.5 16t6.5 13t5.5 5.5q15 0 30 -12t28 -27t21.5 -27t11.5 -12q13 1 30 15t35 30.5t36 29.5t33 12h2l2 1q2 0 6.5 -6.5t9 -15t7.5 -16.5t3 -11q0 -10 -6.5 -7.5t-22 -1
t-42 -21.5t-67.5 -69q39 -73 53 -111.5t-6 -38.5q-14 0 -28.5 10.5t-27 26.5t-21.5 34t-13 32q-7 -12 -23 -30t-35 -34.5t-38.5 -28.5t-34.5 -12v29z" />
    <glyph glyph-name="Oslash" unicode="&#xd8;" horiz-adv-x="505" 
d="M23 10q0 12 2 21q-3 6 -5 12q-6 19 -5.5 42t4.5 45q52 158 100 267.5t91 179t81 105t70.5 46.5t59 2.5t47.5 -26.5q12 -11 22 -23q26 25 50 43q2 1 10 2.5t10 1.5q0 -17 -17 -51q-10 -19 -23 -41q3 -7 6 -12q-4 -100 -38 -198t-92.5 -182t-138.5 -148q-76 -62 -166 -95
q-9 -8 -17 -16q-3 -3 -16 -9t-16 -6q-7 0 -11.5 5t-6 11.5t-1.5 13.5v10zM343 635q-22 -5 -49.5 -41t-56 -90t-56.5 -119.5t-51 -127.5t-40 -115q-11 -33 -17 -57q7 11 17 26q22 35 49.5 78t58 90.5t58.5 90.5q23 35 42 64v26q0 46 11 91t34 84zM233 136q40 33 70 70t40 66
v5l1 2q0 1 -0.5 2t-0.5 2v2q-17 29 -28 62q-26 -37 -41 -61t-37.5 -65.5t-49.5 -85.5l-32 -50q41 21 78 51zM375 323q100 109 110 259q-21 -32 -47 -67q-33 -45 -65 -88q-11 -15 -22 -29q9 -42 24 -75zM460 663q-54 -16 -80.5 -55.5t-33.5 -89.5l-2 -16q12 19 33 47
q23 31 50 63q21 25 43 49q-4 1 -10 2z" />
    <glyph glyph-name="Ugrave" unicode="&#xd9;" horiz-adv-x="554" 
d="M18 84q0 38 12 76t28 73q7 16 19.5 46t27.5 67t30.5 76t29 73t23.5 58.5t14 31.5q36 17 46 3t3 -48.5t-26.5 -82.5t-43 -98.5t-47 -98t-37.5 -79.5q-26 -58 -29 -83t14.5 -22.5t53 29.5t86 73.5t114 110t137.5 139.5q17 23 33.5 54.5t32.5 63.5t31 60.5t30.5 45
t30.5 16.5t31 -24q-20 -56 -54 -121t-67.5 -134.5t-57.5 -140t-24 -136.5q0 -18 11 -23.5t26 -5t31.5 2t28.5 -3.5q-5 -9 -8 -18.5t-7 -17.5t-9.5 -13t-16.5 -5q-20 -10 -45.5 1t-45 42t-26.5 81.5t11 119.5l-30 -27t-46 -41t-54 -48.5t-53.5 -48.5t-46 -41t-29.5 -27
q-5 -3 -14 -10t-19.5 -13.5t-21 -11.5t-17.5 -5q-17 0 -28 8t-18.5 21t-10.5 27.5t-3 28.5zM369 895q14 -8 34 -29.5t39 -46.5t34 -48t19 -34q-2 -12 -17.5 -5t-35.5 24.5t-40.5 41t-34 45t-15 36.5t16.5 16z" />
    <glyph glyph-name="Uacute" unicode="&#xda;" horiz-adv-x="554" 
d="M18 84q0 38 12 76t28 73q7 16 19.5 46t27.5 67t30.5 76t29 73t23.5 58.5t14 31.5q36 17 46 3t3 -48.5t-26.5 -82.5t-43 -98.5t-47 -98t-37.5 -79.5q-26 -58 -29 -83t14.5 -22.5t53 29.5t86 73.5t114 110t137.5 139.5q17 23 33.5 54.5t32.5 63.5t31 60.5t30.5 45
t30.5 16.5t31 -24q-20 -56 -54 -121t-67.5 -134.5t-57.5 -140t-24 -136.5q0 -18 11 -23.5t26 -5t31.5 2t28.5 -3.5q-5 -9 -8 -18.5t-7 -17.5t-9.5 -13t-16.5 -5q-20 -10 -45.5 1t-45 42t-26.5 81.5t11 119.5l-30 -27t-46 -41t-54 -48.5t-53.5 -48.5t-46 -41t-29.5 -27
q-5 -3 -14 -10t-19.5 -13.5t-21 -11.5t-17.5 -5q-17 0 -28 8t-18.5 21t-10.5 27.5t-3 28.5zM515 867q17 -1 15 -16.5t-14.5 -37t-31.5 -45.5t-38 -41.5t-33.5 -24.5t-16.5 5q4 10 18 34t32 49.5t36.5 47.5t32.5 29z" />
    <glyph glyph-name="Ucircumflex" unicode="&#xdb;" horiz-adv-x="554" 
d="M18 84q0 38 12 76t28 73q7 16 19.5 46t27.5 67t30.5 76t29 73t23.5 58.5t14 31.5q36 17 46 3t3 -48.5t-26.5 -82.5t-43 -98.5t-47 -98t-37.5 -79.5q-26 -58 -29 -83t14.5 -22.5t53 29.5t86 73.5t114 110t137.5 139.5q17 23 33.5 54.5t32.5 63.5t31 60.5t30.5 45
t30.5 16.5t31 -24q-20 -56 -54 -121t-67.5 -134.5t-57.5 -140t-24 -136.5q0 -18 11 -23.5t26 -5t31.5 2t28.5 -3.5q-5 -9 -8 -18.5t-7 -17.5t-9.5 -13t-16.5 -5q-20 -10 -45.5 1t-45 42t-26.5 81.5t11 119.5l-30 -27t-46 -41t-54 -48.5t-53.5 -48.5t-46 -41t-29.5 -27
q-5 -3 -14 -10t-19.5 -13.5t-21 -11.5t-17.5 -5q-17 0 -28 8t-18.5 21t-10.5 27.5t-3 28.5zM267 709q0 8 9.5 25.5t24.5 39t33.5 44t36 40.5t32.5 30t23 12q16 0 33.5 -10t35 -26.5t33.5 -36t28 -39t19.5 -36t7.5 -25.5q-1 -21 -11.5 -19t-25.5 17t-32 37.5t-32 43t-26 32.5
t-13 6q-7 0 -9.5 -2t-7.5 -7q-21 -9 -38.5 -26t-31.5 -36t-26 -37t-22.5 -29t-20.5 -12t-20 14z" />
    <glyph glyph-name="Udieresis" unicode="&#xdc;" horiz-adv-x="554" 
d="M18 84q0 38 12 76t28 73q7 16 19.5 46t27.5 67t30.5 76t29 73t23.5 58.5t14 31.5q36 17 46 3t3 -48.5t-26.5 -82.5t-43 -98.5t-47 -98t-37.5 -79.5q-26 -58 -29 -83t14.5 -22.5t53 29.5t86 73.5t114 110t137.5 139.5q17 23 33.5 54.5t32.5 63.5t31 60.5t30.5 45
t30.5 16.5t31 -24q-20 -56 -54 -121t-67.5 -134.5t-57.5 -140t-24 -136.5q0 -18 11 -23.5t26 -5t31.5 2t28.5 -3.5q-5 -9 -8 -18.5t-7 -17.5t-9.5 -13t-16.5 -5q-20 -10 -45.5 1t-45 42t-26.5 81.5t11 119.5l-30 -27t-46 -41t-54 -48.5t-53.5 -48.5t-46 -41t-29.5 -27
q-5 -3 -14 -10t-19.5 -13.5t-21 -11.5t-17.5 -5q-17 0 -28 8t-18.5 21t-10.5 27.5t-3 28.5zM340 685q-27 0 -34.5 9.5t-2 21.5t19 24t27.5 17.5t25 1t11 -25.5q0 -22 -12.5 -35t-33.5 -13zM511 692q-27 0 -34.5 9.5t-2 21.5t19 24t27.5 17.5t25 1t11 -25.5q0 -22 -12.5 -35
t-33.5 -13z" />
    <glyph glyph-name="Yacute" unicode="&#xdd;" horiz-adv-x="602" 
d="M-245 -748q80 23 150.5 83.5t132 144t114 181.5t96 197t78.5 191t61.5 161.5t37 92.5t35.5 55q-25 -27 -63.5 -64t-83.5 -70t-93 -56t-91 -23q-28 0 -45.5 12.5t-27.5 32t-13.5 44t-3.5 49.5q0 21 11 60.5t29 86.5t40 96t45 89t43.5 65.5t34.5 25.5q13 0 23 -6t10 -20
q0 -19 -10 -34.5t-31 -18.5q-14 -16 -31.5 -46.5t-34.5 -68t-32 -78.5t-22.5 -78t-6.5 -67t16 -45t45 -12t80 32q51 37 96 81t83 89t68 87.5t52 77t35 57.5t17 29q11 16 19 26.5t17.5 16.5t22.5 8t35 2q-8 -27 -22 -59.5t-38.5 -84t-61.5 -131t-89.5 -201t-123 -292.5
t-162.5 -406q-21 -42 -59.5 -93t-84 -99.5t-94 -88.5t-90 -61t-72.5 -16t-41 46zM526 940q17 -1 15 -16.5t-14.5 -37t-31.5 -45.5t-38 -41.5t-33.5 -24.5t-16.5 5q4 10 18 34t32 49.5t36.5 47.5t32.5 29z" />
    <glyph glyph-name="Thorn" unicode="&#xde;" horiz-adv-x="447" 
d="M35 -108q-3 -5 -12 -0.5t-17.5 12.5t-12.5 16t3 11l140 277l153 310l5 6q6 6 14 9t16.5 -2t16.5 -26l-62 -143v-12q28 -4 52 -11.5t41.5 -21.5t27.5 -34.5t10 -49.5q0 -32 -15 -64.5t-39.5 -61t-56.5 -51.5t-66 -36.5t-68 -16t-62 9.5zM290 287q-14 0 -30.5 -13
t-32.5 -33.5t-31 -46t-26.5 -50.5t-18.5 -47t-7 -35q28 0 63 13t65.5 34.5t51 50t20.5 59.5q0 27 -11 47.5t-43 20.5z" />
    <glyph glyph-name="germandbls" unicode="&#xdf;" horiz-adv-x="707" 
d="M337 479q-37 -118 -70.5 -212t-61.5 -167.5t-50.5 -127.5t-37.5 -93q-21 -52 -43 -66t-40.5 -6.5t-30.5 28.5t-11 40q1 15 5.5 25t15.5 12q21 -62 40 -48t39 85q13 47 30 110t41 139t57 163.5t78 183.5q40 78 92.5 124t103.5 70t92 31.5t57 7.5q8 0 18.5 -0.5t13.5 -12.5
v-9q0 -6 0.5 -13.5t0.5 -14.5v-8q0 -41 -9.5 -80.5t-27.5 -71.5t-43 -54q-23 -20 -51 -27q15 2 27 -6q13 -9 20.5 -25t11 -36t5 -38t1 -30.5t-0.5 -14.5q0 -63 -32 -117t-82 -93t-111.5 -61.5t-121.5 -22.5q-5 1 -10.5 3t-7.5 8t0 18.5t11 35.5q63 0 109 11.5t80 37.5t58 67
t43 100q0 2 0.5 9.5t0.5 9.5q0 39 -3 59.5t-14 30t-32 12t-57 4.5q-5 1 -14.5 10.5t-10.5 14.5t3.5 15t8.5 12q40 1 74.5 18t59 46t38.5 68t14 83q-37 0 -78.5 -25.5t-80 -62t-69.5 -77.5t-48 -72z" />
    <glyph glyph-name="agrave" unicode="&#xe0;" horiz-adv-x="432" 
d="M18 65q9 57 34 105t57.5 83.5t70.5 58.5t74 29.5t66.5 -3.5t49.5 -40q0 -23 -10.5 -44t-23 -42t-23 -43t-10.5 -47q0 -26 11.5 -41.5t40.5 -15.5q24 0 46.5 7t45.5 7q4 0 13.5 -0.5t12.5 -0.5q-12 -17 -31 -29t-40 -20.5t-43.5 -12.5t-41.5 -4q-18 0 -32 8t-24 21
t-15.5 29.5t-5.5 32.5q-15 -17 -32.5 -35.5t-37 -33.5t-42 -25t-46.5 -10q-26 0 -45 19.5t-19 46.5zM84 96q0 -8 0.5 -18t12.5 -13q25 6 57 26.5t60 48t47 59t19 60.5q0 2 -0.5 6.5t-0.5 6.5q-34 0 -69 -14t-63 -38.5t-45.5 -56.5t-17.5 -67zM226 598q14 -8 34 -29.5
t39 -46.5t34 -48t19 -34q-2 -12 -17.5 -5t-35.5 24.5t-40.5 41t-34 45t-15 36.5t16.5 16z" />
    <glyph glyph-name="aacute" unicode="&#xe1;" horiz-adv-x="432" 
d="M18 65q9 57 34 105t57.5 83.5t70.5 58.5t74 29.5t66.5 -3.5t49.5 -40q0 -23 -10.5 -44t-23 -42t-23 -43t-10.5 -47q0 -26 11.5 -41.5t40.5 -15.5q24 0 46.5 7t45.5 7q4 0 13.5 -0.5t12.5 -0.5q-12 -17 -31 -29t-40 -20.5t-43.5 -12.5t-41.5 -4q-18 0 -32 8t-24 21
t-15.5 29.5t-5.5 32.5q-15 -17 -32.5 -35.5t-37 -33.5t-42 -25t-46.5 -10q-26 0 -45 19.5t-19 46.5zM84 96q0 -8 0.5 -18t12.5 -13q25 6 57 26.5t60 48t47 59t19 60.5q0 2 -0.5 6.5t-0.5 6.5q-34 0 -69 -14t-63 -38.5t-45.5 -56.5t-17.5 -67zM301 556q17 -1 15 -16.5
t-14.5 -37t-31.5 -45.5t-38 -41.5t-33.5 -24.5t-16.5 5q4 10 18 34t32 49.5t36.5 47.5t32.5 29z" />
    <glyph glyph-name="acircumflex" unicode="&#xe2;" horiz-adv-x="432" 
d="M18 65q9 57 34 105t57.5 83.5t70.5 58.5t74 29.5t66.5 -3.5t49.5 -40q0 -23 -10.5 -44t-23 -42t-23 -43t-10.5 -47q0 -26 11.5 -41.5t40.5 -15.5q24 0 46.5 7t45.5 7q4 0 13.5 -0.5t12.5 -0.5q-12 -17 -31 -29t-40 -20.5t-43.5 -12.5t-41.5 -4q-18 0 -32 8t-24 21
t-15.5 29.5t-5.5 32.5q-15 -17 -32.5 -35.5t-37 -33.5t-42 -25t-46.5 -10q-26 0 -45 19.5t-19 46.5zM84 96q0 -8 0.5 -18t12.5 -13q25 6 57 26.5t60 48t47 59t19 60.5q0 2 -0.5 6.5t-0.5 6.5q-34 0 -69 -14t-63 -38.5t-45.5 -56.5t-17.5 -67zM71 407q0 8 9.5 25.5t24.5 39
t33.5 44t36 40.5t32.5 30t23 12q16 0 33.5 -10t35 -26.5t33.5 -36t28 -39t19.5 -36t7.5 -25.5q-1 -21 -11.5 -19t-25.5 17t-32 37.5t-32 43t-26 32.5t-13 6q-7 0 -9.5 -2t-7.5 -7q-21 -9 -38.5 -26t-31.5 -36t-26 -37t-22.5 -29t-20.5 -12t-20 14z" />
    <glyph glyph-name="atilde" unicode="&#xe3;" horiz-adv-x="432" 
d="M18 65q9 57 34 105t57.5 83.5t70.5 58.5t74 29.5t66.5 -3.5t49.5 -40q0 -23 -10.5 -44t-23 -42t-23 -43t-10.5 -47q0 -26 11.5 -41.5t40.5 -15.5q24 0 46.5 7t45.5 7q4 0 13.5 -0.5t12.5 -0.5q-12 -17 -31 -29t-40 -20.5t-43.5 -12.5t-41.5 -4q-18 0 -32 8t-24 21
t-15.5 29.5t-5.5 32.5q-15 -17 -32.5 -35.5t-37 -33.5t-42 -25t-46.5 -10q-26 0 -45 19.5t-19 46.5zM84 96q0 -8 0.5 -18t12.5 -13q25 6 57 26.5t60 48t47 59t19 60.5q0 2 -0.5 6.5t-0.5 6.5q-34 0 -69 -14t-63 -38.5t-45.5 -56.5t-17.5 -67zM260 487q-23 -2 -39.5 5.5
t-31 19.5t-28 25.5t-30 23.5t-38 13.5t-50.5 -4.5q-2 0 -10 -2t-16.5 -4t-16 -4t-9.5 -2q-8 0 -11 7t-3 13q0 8 14 18t32 19t35 15t23 6q31 0 52.5 -14.5t41 -31.5t42 -31.5t55.5 -14.5q42 0 62.5 11t30 24.5t12.5 25t11 11.5q11 0 23 -3t12 -18q-7 -29 -22.5 -47t-37.5 -30
t-48.5 -18.5t-54.5 -12.5z" />
    <glyph glyph-name="adieresis" unicode="&#xe4;" horiz-adv-x="432" 
d="M18 65q9 57 34 105t57.5 83.5t70.5 58.5t74 29.5t66.5 -3.5t49.5 -40q0 -23 -10.5 -44t-23 -42t-23 -43t-10.5 -47q0 -26 11.5 -41.5t40.5 -15.5q24 0 46.5 7t45.5 7q4 0 13.5 -0.5t12.5 -0.5q-12 -17 -31 -29t-40 -20.5t-43.5 -12.5t-41.5 -4q-18 0 -32 8t-24 21
t-15.5 29.5t-5.5 32.5q-15 -17 -32.5 -35.5t-37 -33.5t-42 -25t-46.5 -10q-26 0 -45 19.5t-19 46.5zM84 96q0 -8 0.5 -18t12.5 -13q25 6 57 26.5t60 48t47 59t19 60.5q0 2 -0.5 6.5t-0.5 6.5q-34 0 -69 -14t-63 -38.5t-45.5 -56.5t-17.5 -67zM169 423q-27 0 -34.5 9.5
t-2 21.5t19 24t27.5 17.5t25 1t11 -25.5q0 -22 -12.5 -35t-33.5 -13zM340 430q-27 0 -34.5 9.5t-2 21.5t19 24t27.5 17.5t25 1t11 -25.5q0 -22 -12.5 -35t-33.5 -13z" />
    <glyph glyph-name="aring" unicode="&#xe5;" horiz-adv-x="432" 
d="M176 387q0 2 0.5 11.5t0.5 11.5q25 55 63.5 101t88.5 82q1 0 4.5 0.5t5.5 0.5q20 0 33.5 -8.5t22 -22t12 -30t3.5 -32.5q0 -29 -14 -60.5t-38 -57.5q-22 -25 -51 -42q7 -1 13 -3q31 -10 50 -40q0 -23 -10.5 -44t-23 -42t-23 -43t-10.5 -47q0 -26 11.5 -41.5t40.5 -15.5
q24 0 46.5 7t45.5 7q4 0 13.5 -0.5t12.5 -0.5q-12 -17 -31 -29t-40 -20.5t-43.5 -12.5t-41.5 -4q-18 0 -32 8t-24 21t-15.5 29.5t-5.5 32.5q-15 -17 -32.5 -35.5t-37 -33.5t-42 -25t-46.5 -10q-26 0 -45 19.5t-19 46.5q9 57 34 105t57.5 83.5t70.5 58.5q15 9 30 16
q-11 4 -18 12q-16 17 -16 47zM84 96q0 -8 0.5 -18t12.5 -13q25 6 57 26.5t60 48t47 59t19 60.5q0 2 -0.5 6.5t-0.5 6.5q-34 0 -69 -14t-63 -38.5t-45.5 -56.5t-17.5 -67zM237 396q0 -8 6.5 -12t13.5 -4q19 0 38 10t33 25.5t23 34.5t9 36q0 8 -1 18t-5.5 18t-12.5 12t-23 1
q-11 -2 -25 -19t-26.5 -39.5t-21 -45t-8.5 -35.5z" />
    <glyph glyph-name="ae" unicode="&#xe6;" horiz-adv-x="699" 
d="M18 65q9 57 34 105t57.5 83.5t70.5 58.5t74 29.5t66.5 -3.5t49.5 -40q0 -10 -3 -22q29 27 61 43.5t58.5 19t42 -11.5t11.5 -47q-12 -40 -38 -74t-52.5 -60t-48.5 -45t-26.5 -30.5t15.5 -15t76 1.5q84 17 130.5 22t64 2t9.5 -11.5t-32 -19.5t-61 -21t-78.5 -16.5
t-82.5 -6.5t-74.5 10.5t-54.5 33.5t-21 62q-15 -17 -36.5 -37t-46 -37t-51 -28t-50.5 -11q-26 0 -45 19.5t-19 46.5zM84 96q0 -8 0.5 -18t12.5 -13q25 6 57 26.5t60 48t47 59t19 60.5q0 2 -0.5 6.5t-0.5 6.5q-34 0 -69 -14t-63 -38.5t-45.5 -56.5t-17.5 -67zM481 280
q-20 0 -38 -11t-32.5 -27.5t-24.5 -36t-15 -36.5q2 -1 3 -1h3q14 0 32 12t34 29.5t27 36.5t11 34z" />
    <glyph glyph-name="ccedilla" unicode="&#xe7;" horiz-adv-x="348" 
d="M65 -152q0 14 4 23t20 9h7q5 0 7 -1q-1 -31 11 -46.5t41 -15.5q25 0 41 3.5t25 12.5t12.5 25.5t3.5 43.5q0 16 -9.5 24t-21 14t-21 12t-9.5 18q-1 18 0 32q-24 -3 -48 -3q-18 0 -38 6.5t-37 18.5t-28.5 29t-11.5 38q0 45 13 87.5t36 80.5t55.5 70t70.5 56v1
q15 9 34.5 17.5t36.5 10t28.5 -8t11.5 -35.5q0 -12 -2 -31.5t-11 -27.5q-8 -5 -21 -9q-6 -2 -12 -3v63q-23 -3 -53 -28.5t-57.5 -62t-46.5 -79t-19 -78.5q0 -29 15 -40.5t43 -11.5q30 0 58.5 7.5t57 16t57 16t58.5 7.5q0 -14 -4 -23.5t-12 -20.5q-52 -25 -107 -46
q-11 -4 -21 -7q0 -17 -7 -42q11 -8 23 -14.5t21.5 -13.5t16 -16t6.5 -22q0 -70 -28 -100t-94 -30q-38 0 -66.5 18t-28.5 56z" />
    <glyph glyph-name="egrave" unicode="&#xe8;" 
d="M16 52q-17 38 -15 74.5t16.5 69t38 59t50.5 46t54.5 29.5t48.5 8.5t33 -15.5t8 -43q0 -39 -24.5 -68t-54 -52t-54 -41.5t-24.5 -34.5q0 -9 10.5 -14t24.5 -7.5t28 -3.5t20 -2q94 20 141 24.5t59 -1t-4.5 -17t-50.5 -24t-79 -22.5t-89 -11.5t-81.5 8.5t-55.5 38zM191 280
q-20 0 -38 -11t-32.5 -27.5t-24.5 -36t-15 -36.5q2 -1 3 -1h3q14 0 32 12t34 29.5t27 36.5t11 34zM92 556q14 -8 34 -29.5t39 -46.5t34 -48t19 -34q-2 -12 -17.5 -5t-35.5 24.5t-40.5 41t-34 45t-15 36.5t16.5 16z" />
    <glyph glyph-name="eacute" unicode="&#xe9;" 
d="M16 52q-17 38 -15 74.5t16.5 69t38 59t50.5 46t54.5 29.5t48.5 8.5t33 -15.5t8 -43q0 -39 -24.5 -68t-54 -52t-54 -41.5t-24.5 -34.5q0 -9 10.5 -14t24.5 -7.5t28 -3.5t20 -2q94 20 141 24.5t59 -1t-4.5 -17t-50.5 -24t-79 -22.5t-89 -11.5t-81.5 8.5t-55.5 38zM191 280
q-20 0 -38 -11t-32.5 -27.5t-24.5 -36t-15 -36.5q2 -1 3 -1h3q14 0 32 12t34 29.5t27 36.5t11 34zM204 531q17 -1 15 -16.5t-14.5 -37t-31.5 -45.5t-38 -41.5t-33.5 -24.5t-16.5 5q4 10 18 34t32 49.5t36.5 47.5t32.5 29z" />
    <glyph glyph-name="ecircumflex" unicode="&#xea;" 
d="M16 52q-17 38 -15 74.5t16.5 69t38 59t50.5 46t54.5 29.5t48.5 8.5t33 -15.5t8 -43q0 -39 -24.5 -68t-54 -52t-54 -41.5t-24.5 -34.5q0 -9 10.5 -14t24.5 -7.5t28 -3.5t20 -2q94 20 141 24.5t59 -1t-4.5 -17t-50.5 -24t-79 -22.5t-89 -11.5t-81.5 8.5t-55.5 38zM191 280
q-20 0 -38 -11t-32.5 -27.5t-24.5 -36t-15 -36.5q2 -1 3 -1h3q14 0 32 12t34 29.5t27 36.5t11 34zM15 373q0 8 9.5 25.5t24.5 39t33.5 44t36 40.5t32.5 30t23 12q16 0 33.5 -10t35 -26.5t33.5 -36t28 -39t19.5 -36t7.5 -25.5q-1 -21 -11.5 -19t-25.5 17t-32 37.5t-32 43
t-26 32.5t-13 6q-7 0 -9.5 -2t-7.5 -7q-21 -9 -38.5 -26t-31.5 -36t-26 -37t-22.5 -29t-20.5 -12t-20 14z" />
    <glyph glyph-name="edieresis" unicode="&#xeb;" 
d="M16 52q-17 38 -15 74.5t16.5 69t38 59t50.5 46t54.5 29.5t48.5 8.5t33 -15.5t8 -43q0 -39 -24.5 -68t-54 -52t-54 -41.5t-24.5 -34.5q0 -9 10.5 -14t24.5 -7.5t28 -3.5t20 -2q94 20 141 24.5t59 -1t-4.5 -17t-50.5 -24t-79 -22.5t-89 -11.5t-81.5 8.5t-55.5 38zM191 280
q-20 0 -38 -11t-32.5 -27.5t-24.5 -36t-15 -36.5q2 -1 3 -1h3q14 0 32 12t34 29.5t27 36.5t11 34zM82 381q-27 0 -34.5 9.5t-2 21.5t19 24t27.5 17.5t25 1t11 -25.5q0 -22 -12.5 -35t-33.5 -13zM253 388q-27 0 -34.5 9.5t-2 21.5t19 24t27.5 17.5t25 1t11 -25.5
q0 -22 -12.5 -35t-33.5 -13z" />
    <glyph glyph-name="igrave" unicode="&#xec;" horiz-adv-x="237" 
d="M5 65q0 14 3 24.5t11 27.5q7 10 25.5 38t39 59t39 58.5t25.5 38.5q9 13 14 14t19 1q9 0 19.5 -1t13.5 -14q-14 -34 -37.5 -64.5t-46 -60.5t-39.5 -61.5t-17 -67.5q4 0 12.5 -1t18.5 -2t18.5 -2t12.5 0q6 1 20.5 4.5t31 7.5t31.5 8t21 6q0 -2 0.5 -6.5t0.5 -6.5
q0 -20 -18.5 -33t-43 -20.5t-50 -10t-39.5 -2.5q-15 0 -30.5 3.5t-27.5 11.5t-19.5 20.5t-7.5 30.5zM129 568q14 -8 34 -29.5t39 -46.5t34 -48t19 -34q-2 -12 -17.5 -5t-35.5 24.5t-40.5 41t-34 45t-15 36.5t16.5 16z" />
    <glyph glyph-name="iacute" unicode="&#xed;" horiz-adv-x="237" 
d="M5 65q0 14 3 24.5t11 27.5q7 10 25.5 38t39 59t39 58.5t25.5 38.5q9 13 14 14t19 1q9 0 19.5 -1t13.5 -14q-14 -34 -37.5 -64.5t-46 -60.5t-39.5 -61.5t-17 -67.5q4 0 12.5 -1t18.5 -2t18.5 -2t12.5 0q6 1 20.5 4.5t31 7.5t31.5 8t21 6q0 -2 0.5 -6.5t0.5 -6.5
q0 -20 -18.5 -33t-43 -20.5t-50 -10t-39.5 -2.5q-15 0 -30.5 3.5t-27.5 11.5t-19.5 20.5t-7.5 30.5zM232 620q17 -1 15 -16.5t-14.5 -37t-31.5 -45.5t-38 -41.5t-33.5 -24.5t-16.5 5q4 10 18 34t32 49.5t36.5 47.5t32.5 29z" />
    <glyph glyph-name="icircumflex" unicode="&#xee;" horiz-adv-x="237" 
d="M5 65q0 14 3 24.5t11 27.5q7 10 25.5 38t39 59t39 58.5t25.5 38.5q9 13 14 14t19 1q9 0 19.5 -1t13.5 -14q-14 -34 -37.5 -64.5t-46 -60.5t-39.5 -61.5t-17 -67.5q4 0 12.5 -1t18.5 -2t18.5 -2t12.5 0q6 1 20.5 4.5t31 7.5t31.5 8t21 6q0 -2 0.5 -6.5t0.5 -6.5
q0 -20 -18.5 -33t-43 -20.5t-50 -10t-39.5 -2.5q-15 0 -30.5 3.5t-27.5 11.5t-19.5 20.5t-7.5 30.5zM40 420q0 8 9.5 25.5t24.5 39t33.5 44t36 40.5t32.5 30t23 12q16 0 33.5 -10t35 -26.5t33.5 -36t28 -39t19.5 -36t7.5 -25.5q-1 -21 -11.5 -19t-25.5 17t-32 37.5t-32 43
t-26 32.5t-13 6q-7 0 -9.5 -2t-7.5 -7q-21 -9 -38.5 -26t-31.5 -36t-26 -37t-22.5 -29t-20.5 -12t-20 14z" />
    <glyph glyph-name="idieresis" unicode="&#xef;" horiz-adv-x="237" 
d="M5 65q0 14 3 24.5t11 27.5q7 10 25.5 38t39 59t39 58.5t25.5 38.5q9 13 14 14t19 1q9 0 19.5 -1t13.5 -14q-14 -34 -37.5 -64.5t-46 -60.5t-39.5 -61.5t-17 -67.5q4 0 12.5 -1t18.5 -2t18.5 -2t12.5 0q6 1 20.5 4.5t31 7.5t31.5 8t21 6q0 -2 0.5 -6.5t0.5 -6.5
q0 -20 -18.5 -33t-43 -20.5t-50 -10t-39.5 -2.5q-15 0 -30.5 3.5t-27.5 11.5t-19.5 20.5t-7.5 30.5zM107 372q-27 0 -34.5 9.5t-2 21.5t19 24t27.5 17.5t25 1t11 -25.5q0 -22 -12.5 -35t-33.5 -13zM278 379q-27 0 -34.5 9.5t-2 21.5t19 24t27.5 17.5t25 1t11 -25.5
q0 -22 -12.5 -35t-33.5 -13z" />
    <glyph glyph-name="eth" unicode="&#xf0;" horiz-adv-x="427" 
d="M168 498q0 14 10 25t30 11l40 -71l48 51l29 -44l-44 -43q29 -54 56.5 -115.5t48 -114t31.5 -88.5t6 -40q9 -27 -3 -43t-33 -24.5t-46.5 -10.5t-44.5 -1q-32 0 -76.5 10.5t-86 30t-70.5 47t-29 60.5q0 13 5.5 28t16 27.5t25.5 21t33 8.5q26 0 55 -3.5t58.5 -13t58.5 -26
t55 -42.5l-113 233l-39 -52l-33 48l51 60l-38 57q-1 1 -1 6v8zM89 135q0 -23 26.5 -42.5t62 -33.5t71 -22t53.5 -8h13q10 0 19.5 1t16.5 4t7 9q0 29 -25.5 51.5t-61.5 38.5t-73.5 24t-61.5 8q-28 0 -37.5 -3t-9.5 -27z" />
    <glyph glyph-name="ntilde" unicode="&#xf1;" horiz-adv-x="445" 
d="M25 45v14t1.5 9.5t4.5 9.5t8 13q8 14 30 49t47 74t47.5 74l31.5 49q1 1 5.5 1h6.5h7t6 -1t4.5 -5t8 -8.5t8 -8.5t5.5 -4q9 0 19 6t20.5 13.5t21.5 13.5t23 6q13 0 24 -6t19 -15t12.5 -20t4.5 -22q0 -23 -6.5 -44t-14.5 -41.5t-14.5 -41t-6.5 -42.5t5 -31.5t28 -9.5
q27 0 51.5 8t50.5 8q0 -24 -14.5 -40t-36 -25.5t-46 -13t-44.5 -3.5q-38 0 -55.5 21.5t-17.5 57.5q0 24 8.5 45t19 41t19.5 40t9 43q0 6 -2 16t-13 10q-33 0 -59.5 -21t-48 -53t-39 -69t-33 -69t-29.5 -53t-29 -21q-21 0 -34 13t-13 33zM394 408q-23 -2 -39.5 5.5t-31 19.5
t-28 25.5t-30 23.5t-38 13.5t-50.5 -4.5q-2 0 -10 -2t-16.5 -4t-16 -4t-9.5 -2q-8 0 -11 7t-3 13q0 8 14 18t32 19t35 15t23 6q31 0 52.5 -14.5t41 -31.5t42 -31.5t55.5 -14.5q42 0 62.5 11t30 24.5t12.5 25t11 11.5q11 0 23 -3t12 -18q-7 -29 -22.5 -47t-37.5 -30
t-48.5 -18.5t-54.5 -12.5z" />
    <glyph glyph-name="ograve" unicode="&#xf2;" 
d="M18 84q0 4 0.5 16.5t0.5 16.5q32 73 82 135t113 110q2 0 6.5 1.5t6.5 1.5q27 0 44.5 -11.5t28 -30t14.5 -41t4 -43.5q0 -39 -18 -81.5t-48.5 -78t-69.5 -58t-81 -22.5t-62.5 22.5t-20.5 62.5zM96 96q0 -11 9 -15t18 -4q25 0 48.5 13.5t42 34t29.5 45.5t11 48
q0 11 -1.5 24.5t-6.5 24t-15.5 16.5t-29.5 2q-14 -3 -32 -26t-34.5 -53.5t-27.5 -61t-11 -48.5zM193 556q14 -8 34 -29.5t39 -46.5t34 -48t19 -34q-2 -12 -17.5 -5t-35.5 24.5t-40.5 41t-34 45t-15 36.5t16.5 16z" />
    <glyph glyph-name="oacute" unicode="&#xf3;" 
d="M18 84q0 4 0.5 16.5t0.5 16.5q32 73 82 135t113 110q2 0 6.5 1.5t6.5 1.5q27 0 44.5 -11.5t28 -30t14.5 -41t4 -43.5q0 -39 -18 -81.5t-48.5 -78t-69.5 -58t-81 -22.5t-62.5 22.5t-20.5 62.5zM96 96q0 -11 9 -15t18 -4q25 0 48.5 13.5t42 34t29.5 45.5t11 48
q0 11 -1.5 24.5t-6.5 24t-15.5 16.5t-29.5 2q-14 -3 -32 -26t-34.5 -53.5t-27.5 -61t-11 -48.5zM263 580q17 -1 15 -16.5t-14.5 -37t-31.5 -45.5t-38 -41.5t-33.5 -24.5t-16.5 5q4 10 18 34t32 49.5t36.5 47.5t32.5 29z" />
    <glyph glyph-name="ocircumflex" unicode="&#xf4;" 
d="M18 84q0 4 0.5 16.5t0.5 16.5q32 73 82 135t113 110q2 0 6.5 1.5t6.5 1.5q27 0 44.5 -11.5t28 -30t14.5 -41t4 -43.5q0 -39 -18 -81.5t-48.5 -78t-69.5 -58t-81 -22.5t-62.5 22.5t-20.5 62.5zM96 96q0 -11 9 -15t18 -4q25 0 48.5 13.5t42 34t29.5 45.5t11 48
q0 11 -1.5 24.5t-6.5 24t-15.5 16.5t-29.5 2q-14 -3 -32 -26t-34.5 -53.5t-27.5 -61t-11 -48.5zM63 428q0 8 9.5 25.5t24.5 39t33.5 44t36 40.5t32.5 30t23 12q16 0 33.5 -10t35 -26.5t33.5 -36t28 -39t19.5 -36t7.5 -25.5q-1 -21 -11.5 -19t-25.5 17t-32 37.5t-32 43
t-26 32.5t-13 6q-7 0 -9.5 -2t-7.5 -7q-21 -9 -38.5 -26t-31.5 -36t-26 -37t-22.5 -29t-20.5 -12t-20 14z" />
    <glyph glyph-name="otilde" unicode="&#xf5;" 
d="M18 84q0 4 0.5 16.5t0.5 16.5q32 73 82 135t113 110q2 0 6.5 1.5t6.5 1.5q27 0 44.5 -11.5t28 -30t14.5 -41t4 -43.5q0 -39 -18 -81.5t-48.5 -78t-69.5 -58t-81 -22.5t-62.5 22.5t-20.5 62.5zM96 96q0 -11 9 -15t18 -4q25 0 48.5 13.5t42 34t29.5 45.5t11 48
q0 11 -1.5 24.5t-6.5 24t-15.5 16.5t-29.5 2q-14 -3 -32 -26t-34.5 -53.5t-27.5 -61t-11 -48.5zM297 454q-23 -2 -39.5 5.5t-31 19.5t-28 25.5t-30 23.5t-38 13.5t-50.5 -4.5q-2 0 -10 -2t-16.5 -4t-16 -4t-9.5 -2q-8 0 -11 7t-3 13q0 8 14 18t32 19t35 15t23 6
q31 0 52.5 -14.5t41 -31.5t42 -31.5t55.5 -14.5q42 0 62.5 11t30 24.5t12.5 25t11 11.5q11 0 23 -3t12 -18q-7 -29 -22.5 -47t-37.5 -30t-48.5 -18.5t-54.5 -12.5z" />
    <glyph glyph-name="odieresis" unicode="&#xf6;" 
d="M18 84q0 4 0.5 16.5t0.5 16.5q32 73 82 135t113 110q2 0 6.5 1.5t6.5 1.5q27 0 44.5 -11.5t28 -30t14.5 -41t4 -43.5q0 -39 -18 -81.5t-48.5 -78t-69.5 -58t-81 -22.5t-62.5 22.5t-20.5 62.5zM96 96q0 -11 9 -15t18 -4q25 0 48.5 13.5t42 34t29.5 45.5t11 48
q0 11 -1.5 24.5t-6.5 24t-15.5 16.5t-29.5 2q-14 -3 -32 -26t-34.5 -53.5t-27.5 -61t-11 -48.5zM135 413q-27 0 -34.5 9.5t-2 21.5t19 24t27.5 17.5t25 1t11 -25.5q0 -22 -12.5 -35t-33.5 -13zM306 420q-27 0 -34.5 9.5t-2 21.5t19 24t27.5 17.5t25 1t11 -25.5
q0 -22 -12.5 -35t-33.5 -13z" />
    <glyph glyph-name="divide" unicode="&#xf7;" horiz-adv-x="371" 
d="M154 239q0 36 16.5 46t54.5 10q0 -10 1 -25t-0.5 -29t-8 -24t-22.5 -10q-18 0 -29.5 6t-11.5 26zM168 525q0 26 14.5 36.5t35.5 10.5h12.5t14 -2t11 -6t4.5 -13q0 -6 -4 -15t-10 -18t-13 -16.5t-13 -8.5q-5 -1 -13.5 1t-17 6.5t-15 11t-6.5 13.5zM43 398q27 3 58.5 7.5
t64.5 9t65.5 7.5t61.5 3q8 0 17 0.5t17.5 -2t15.5 -8t10 -17.5q-6 -11 -24 -19.5t-43 -14.5t-53 -9.5t-52 -6t-41.5 -3t-20.5 -0.5q-9 0 -22 1.5t-25 5t-20.5 8.5t-8.5 11v27z" />
    <glyph glyph-name="oslash" unicode="&#xf8;" 
d="M30 -16q0 9 2.5 16t16.5 12q-6 4 -11 9q-20 23 -20 63q0 4 0.5 16.5t0.5 16.5q32 73 82 135t113 110q2 0 6.5 1.5t6.5 1.5q27 0 44 -12q10 -6 17 -14q4 3 8 7q17 17 32 28q2 1 6.5 2t5.5 1q0 -10 -10 -29q-10 -17 -24 -38q5 -13 8 -28q4 -22 4 -43q0 -39 -18 -81.5
t-48.5 -78t-69.5 -58t-81 -22.5q-8 0 -14 1q-14 -18 -27 -30q-2 -2 -9.5 -5t-9.5 -3q-4 0 -6.5 3t-3.5 6.5t-1 7.5v5zM96 96q0 -7 3 -11q15 22 32 46q18 26 34 49.5t29 42.5t20 28q7 10 20 27l1 1q-2 2 -5 4q-10 6 -29 2q-14 -3 -32 -26t-34.5 -53.5t-27.5 -61t-11 -48.5z
M171 90q24 14 42.5 34.5t29.5 45.5t11 48q0 9 -1 20q-10 -14 -21 -27q-18 -23 -33.5 -43t-23.5 -33q-9 -13 -22 -36q-5 -10 -11 -20q15 3 29 11z" />
    <glyph glyph-name="ugrave" unicode="&#xf9;" horiz-adv-x="486" 
d="M18 50q0 15 9 42.5t23.5 59.5t33 65t37.5 60t36 44t30 17q28 0 28 -27q0 -12 -4.5 -20t-10.5 -15t-13 -13.5t-12 -15.5q-9 -15 -22 -41t-25.5 -50.5t-21.5 -43.5t-9 -21v-13q39 7 75 33.5t68.5 62.5t62 75.5t55.5 73t49 55.5t43 22q0 -37 -15 -67t-32.5 -59t-32.5 -59.5
t-15 -68.5q0 -16 19.5 -28.5t45 -21t49.5 -13.5t33 -6v-26q-23 -1 -57 -0.5t-68 7.5t-61.5 23.5t-36.5 48.5q-26 -17 -50 -40t-49.5 -43t-53.5 -34t-61 -14q-20 0 -33.5 17t-13.5 34zM233 601q14 -8 34 -29.5t39 -46.5t34 -48t19 -34q-2 -12 -17.5 -5t-35.5 24.5t-40.5 41
t-34 45t-15 36.5t16.5 16z" />
    <glyph glyph-name="uacute" unicode="&#xfa;" horiz-adv-x="486" 
d="M18 50q0 15 9 42.5t23.5 59.5t33 65t37.5 60t36 44t30 17q28 0 28 -27q0 -12 -4.5 -20t-10.5 -15t-13 -13.5t-12 -15.5q-9 -15 -22 -41t-25.5 -50.5t-21.5 -43.5t-9 -21v-13q39 7 75 33.5t68.5 62.5t62 75.5t55.5 73t49 55.5t43 22q0 -37 -15 -67t-32.5 -59t-32.5 -59.5
t-15 -68.5q0 -16 19.5 -28.5t45 -21t49.5 -13.5t33 -6v-26q-23 -1 -57 -0.5t-68 7.5t-61.5 23.5t-36.5 48.5q-26 -17 -50 -40t-49.5 -43t-53.5 -34t-61 -14q-20 0 -33.5 17t-13.5 34zM370 622q17 -1 15 -16.5t-14.5 -37t-31.5 -45.5t-38 -41.5t-33.5 -24.5t-16.5 5
q4 10 18 34t32 49.5t36.5 47.5t32.5 29z" />
    <glyph glyph-name="ucircumflex" unicode="&#xfb;" horiz-adv-x="486" 
d="M18 50q0 15 9 42.5t23.5 59.5t33 65t37.5 60t36 44t30 17q28 0 28 -27q0 -12 -4.5 -20t-10.5 -15t-13 -13.5t-12 -15.5q-9 -15 -22 -41t-25.5 -50.5t-21.5 -43.5t-9 -21v-13q39 7 75 33.5t68.5 62.5t62 75.5t55.5 73t49 55.5t43 22q0 -37 -15 -67t-32.5 -59t-32.5 -59.5
t-15 -68.5q0 -16 19.5 -28.5t45 -21t49.5 -13.5t33 -6v-26q-23 -1 -57 -0.5t-68 7.5t-61.5 23.5t-36.5 48.5q-26 -17 -50 -40t-49.5 -43t-53.5 -34t-61 -14q-20 0 -33.5 17t-13.5 34zM151 470q0 8 9.5 25.5t24.5 39t33.5 44t36 40.5t32.5 30t23 12q16 0 33.5 -10t35 -26.5
t33.5 -36t28 -39t19.5 -36t7.5 -25.5q-1 -21 -11.5 -19t-25.5 17t-32 37.5t-32 43t-26 32.5t-13 6q-7 0 -9.5 -2t-7.5 -7q-21 -9 -38.5 -26t-31.5 -36t-26 -37t-22.5 -29t-20.5 -12t-20 14z" />
    <glyph glyph-name="udieresis" unicode="&#xfc;" horiz-adv-x="486" 
d="M18 50q0 15 9 42.5t23.5 59.5t33 65t37.5 60t36 44t30 17q28 0 28 -27q0 -12 -4.5 -20t-10.5 -15t-13 -13.5t-12 -15.5q-9 -15 -22 -41t-25.5 -50.5t-21.5 -43.5t-9 -21v-13q39 7 75 33.5t68.5 62.5t62 75.5t55.5 73t49 55.5t43 22q0 -37 -15 -67t-32.5 -59t-32.5 -59.5
t-15 -68.5q0 -16 19.5 -28.5t45 -21t49.5 -13.5t33 -6v-26q-23 -1 -57 -0.5t-68 7.5t-61.5 23.5t-36.5 48.5q-26 -17 -50 -40t-49.5 -43t-53.5 -34t-61 -14q-20 0 -33.5 17t-13.5 34zM221 441q-27 0 -34.5 9.5t-2 21.5t19 24t27.5 17.5t25 1t11 -25.5q0 -22 -12.5 -35
t-33.5 -13zM392 448q-27 0 -34.5 9.5t-2 21.5t19 24t27.5 17.5t25 1t11 -25.5q0 -22 -12.5 -35t-33.5 -13z" />
    <glyph glyph-name="yacute" unicode="&#xfd;" horiz-adv-x="534" 
d="M-55 -302q32 52 74 92.5t86.5 76.5t88.5 70t81.5 73t64.5 86.5t37 110.5q0 2 -0.5 6.5t-0.5 6.5q-23 -27 -55.5 -61t-70 -64t-78.5 -50t-80 -20q-10 0 -25.5 1.5t-30.5 6.5t-26 14t-11 24q0 13 7 40t19 60t27 67t32 62t33.5 46t30.5 18t24 -6t10 -20q0 -25 -18 -50
t-39 -53.5t-39 -61.5t-18 -75q66 0 119 27.5t96 68.5t76 89t58.5 89t44 68.5t31.5 27.5q19 0 22.5 -11.5t3.5 -28.5q-9 -31 -25 -72.5t-32.5 -87t-30 -90.5t-17.5 -82q0 -1 0.5 -3t0.5 -3q18 6 34 21t31.5 30.5t31.5 28t33 12.5q1 0 7.5 -14t-0.5 -34q-9 -7 -32.5 -24
t-49.5 -35.5t-49 -36t-32 -26.5q-14 -14 -29 -40t-30 -58.5t-29.5 -68.5t-28.5 -70.5t-27.5 -64t-24.5 -48.5q-5 -8 -20.5 -31.5t-34 -50.5t-36 -51.5t-26.5 -34.5q-4 -5 -22 -23.5t-40.5 -41t-45 -44.5t-34.5 -33q-12 -7 -32 -17.5t-41.5 -17.5t-42 -9t-33.5 8.5t-15.5 35
t11 69t46.5 112.5t91 165zM259 -87q-2 0 -6.5 -1.5t-6.5 -2.5q-2 -2 -9 -7t-15.5 -11t-16 -12t-10.5 -9q-28 -20 -64 -56.5t-74.5 -81t-75.5 -94t-66.5 -95t-47.5 -83.5t-19 -61t19 -27t68 19q10 9 28.5 26.5t37 36t33.5 34t18 19.5q5 7 16 22t24 34t27 40t26.5 40.5
t22 34.5t13.5 23q9 16 22.5 45.5t25.5 61t21 60.5t9 45zM358 702q17 -1 15 -16.5t-14.5 -37t-31.5 -45.5t-38 -41.5t-33.5 -24.5t-16.5 5q4 10 18 34t32 49.5t36.5 47.5t32.5 29z" />
    <glyph glyph-name="thorn" unicode="&#xfe;" horiz-adv-x="512" 
d="M246 651q5 9 13 8.5t17 -4t18 -8.5t16 -5q1 1 -3 -14t-11 -38.5t-16 -52.5t-17.5 -57.5t-15 -53t-9.5 -38.5q-1 -3 16.5 1.5t45 10.5t59.5 10.5t60 1t47 -17t20 -44.5q0 -43 -16.5 -85.5t-44.5 -80.5t-65.5 -69t-79 -51t-85.5 -27.5t-85 2.5l-13 -13l-37 -147
q-3 -9 -17 -11.5t-23 -2.5q-13 0 -25.5 8.5t-12.5 24.5zM356 207q47 50 60 81.5t3.5 47t-35.5 16.5t-57.5 -9.5t-63 -31.5t-51.5 -48q-9 -10 -20 -31.5t-21 -43.5t-16.5 -39.5t-6.5 -19.5v-21q69 0 118 20.5t90 78.5z" />
    <glyph glyph-name="ydieresis" unicode="&#xff;" horiz-adv-x="534" 
d="M-55 -302q32 52 74 92.5t86.5 76.5t88.5 70t81.5 73t64.5 86.5t37 110.5q0 2 -0.5 6.5t-0.5 6.5q-23 -27 -55.5 -61t-70 -64t-78.5 -50t-80 -20q-10 0 -25.5 1.5t-30.5 6.5t-26 14t-11 24q0 13 7 40t19 60t27 67t32 62t33.5 46t30.5 18t24 -6t10 -20q0 -25 -18 -50
t-39 -53.5t-39 -61.5t-18 -75q66 0 119 27.5t96 68.5t76 89t58.5 89t44 68.5t31.5 27.5q19 0 22.5 -11.5t3.5 -28.5q-9 -31 -25 -72.5t-32.5 -87t-30 -90.5t-17.5 -82q0 -1 0.5 -3t0.5 -3q18 6 34 21t31.5 30.5t31.5 28t33 12.5q1 0 7.5 -14t-0.5 -34q-9 -7 -32.5 -24
t-49.5 -35.5t-49 -36t-32 -26.5q-14 -14 -29 -40t-30 -58.5t-29.5 -68.5t-28.5 -70.5t-27.5 -64t-24.5 -48.5q-5 -8 -20.5 -31.5t-34 -50.5t-36 -51.5t-26.5 -34.5q-4 -5 -22 -23.5t-40.5 -41t-45 -44.5t-34.5 -33q-12 -7 -32 -17.5t-41.5 -17.5t-42 -9t-33.5 8.5t-15.5 35
t11 69t46.5 112.5t91 165zM259 -87q-2 0 -6.5 -1.5t-6.5 -2.5q-2 -2 -9 -7t-15.5 -11t-16 -12t-10.5 -9q-28 -20 -64 -56.5t-74.5 -81t-75.5 -94t-66.5 -95t-47.5 -83.5t-19 -61t19 -27t68 19q10 9 28.5 26.5t37 36t33.5 34t18 19.5q5 7 16 22t24 34t27 40t26.5 40.5
t22 34.5t13.5 23q9 16 22.5 45.5t25.5 61t21 60.5t9 45zM240 542q-27 0 -34.5 9.5t-2 21.5t19 24t27.5 17.5t25 1t11 -25.5q0 -22 -12.5 -35t-33.5 -13zM411 549q-27 0 -34.5 9.5t-2 21.5t19 24t27.5 17.5t25 1t11 -25.5q0 -22 -12.5 -35t-33.5 -13z" />
    <glyph glyph-name="Amacron" unicode="&#x100;" horiz-adv-x="878" 
d="M660 45q0 25 3.5 50t8 49.5t8 50t3.5 51.5q-33 0 -57 -3t-47 -6t-49 -4.5t-63 0.5q-27 -30 -61.5 -64t-73.5 -63t-82 -48.5t-87 -19.5q-30 0 -57.5 10t-48.5 28t-33 43.5t-12 56.5q0 16 5.5 24.5t23.5 8.5q9 0 16 -16.5t18.5 -37t29.5 -37t49 -16.5q38 0 74.5 14.5t70 37
t63 50.5t53.5 55q-3 25 -18 37t-31.5 24t-29.5 32t-13 63q0 61 37 95.5t101 34.5q19 0 37.5 -4t37.5 -9.5t37.5 -9.5t37.5 -4q12 0 19.5 3t13.5 9t13 16t18 24q6 8 18.5 25.5t27.5 39t32 45.5t32 46t27 39t17 26q11 9 20 11.5t21 2.5t18 -8.5t7.5 -20.5t1 -24.5t-0.5 -19.5
v-9.5t-0.5 -13.5t-0.5 -13.5v-8.5q-3 -10 -9.5 -30t-14.5 -45.5t-16.5 -53.5t-16 -54t-13.5 -46t-8 -30q-1 -5 -3 -16t-4 -23.5t-4 -23.5t-2 -15q9 -2 18 -6t9 -13q0 -10 -7.5 -16t-17.5 -11t-18.5 -12t-9.5 -20q-2 -12 -7 -43.5t-11.5 -67t-12 -66.5t-8.5 -43q-1 -3 -4 -11
t-7 -16t-8 -15t-6 -10q-24 5 -39 12.5t-15 32.5zM643 429q-12 0 -33.5 -17t-42.5 -39.5t-37 -45t-16 -33.5q6 0 23.5 0.5t37 1t37 1.5t24.5 1q4 0 12.5 2t16.5 4t14.5 4t7.5 3q1 0 1 6.5v10.5q0 8 -2.5 25t-8 34t-14 29.5t-20.5 12.5zM362 428q0 -14 10 -32t25 -34t32 -27
t32 -11q14 0 33 17t36.5 39.5t29.5 43.5t12 29q0 17 -11.5 25.5t-27 12t-32.5 3.5h-28q-14 0 -33.5 -2.5t-36.5 -9.5t-29 -20t-12 -34zM662 479q22 -26 41 -56t36 -61l89 320zM696 927q27 3 63 4t74 2t74 1h65q17 0 31 -7.5t21 -30.5q-26 -5 -58.5 -8.5t-67 -6t-68.5 -3.5
t-62.5 -0.5t-49 3t-28.5 6.5z" />
    <glyph glyph-name="amacron" unicode="&#x101;" horiz-adv-x="432" 
d="M18 65q9 57 34 105t57.5 83.5t70.5 58.5t74 29.5t66.5 -3.5t49.5 -40q0 -23 -10.5 -44t-23 -42t-23 -43t-10.5 -47q0 -26 11.5 -41.5t40.5 -15.5q24 0 46.5 7t45.5 7q4 0 13.5 -0.5t12.5 -0.5q-12 -17 -31 -29t-40 -20.5t-43.5 -12.5t-41.5 -4q-18 0 -32 8t-24 21
t-15.5 29.5t-5.5 32.5q-15 -17 -32.5 -35.5t-37 -33.5t-42 -25t-46.5 -10q-26 0 -45 19.5t-19 46.5zM84 96q0 -8 0.5 -18t12.5 -13q25 6 57 26.5t60 48t47 59t19 60.5q0 2 -0.5 6.5t-0.5 6.5q-34 0 -69 -14t-63 -38.5t-45.5 -56.5t-17.5 -67zM59 474q27 3 63 4t74 2t74 1h65
q17 0 31 -7.5t21 -30.5q-26 -5 -58.5 -8.5t-67 -6t-68.5 -3.5t-62.5 -0.5t-49 3t-28.5 6.5z" />
    <glyph glyph-name="Abreve" unicode="&#x102;" horiz-adv-x="878" 
d="M660 45q0 25 3.5 50t8 49.5t8 50t3.5 51.5q-33 0 -57 -3t-47 -6t-49 -4.5t-63 0.5q-27 -30 -61.5 -64t-73.5 -63t-82 -48.5t-87 -19.5q-30 0 -57.5 10t-48.5 28t-33 43.5t-12 56.5q0 16 5.5 24.5t23.5 8.5q9 0 16 -16.5t18.5 -37t29.5 -37t49 -16.5q38 0 74.5 14.5t70 37
t63 50.5t53.5 55q-3 25 -18 37t-31.5 24t-29.5 32t-13 63q0 61 37 95.5t101 34.5q19 0 37.5 -4t37.5 -9.5t37.5 -9.5t37.5 -4q12 0 19.5 3t13.5 9t13 16t18 24q6 8 18.5 25.5t27.5 39t32 45.5t32 46t27 39t17 26q11 9 20 11.5t21 2.5t18 -8.5t7.5 -20.5t1 -24.5t-0.5 -19.5
v-9.5t-0.5 -13.5t-0.5 -13.5v-8.5q-3 -10 -9.5 -30t-14.5 -45.5t-16.5 -53.5t-16 -54t-13.5 -46t-8 -30q-1 -5 -3 -16t-4 -23.5t-4 -23.5t-2 -15q9 -2 18 -6t9 -13q0 -10 -7.5 -16t-17.5 -11t-18.5 -12t-9.5 -20q-2 -12 -7 -43.5t-11.5 -67t-12 -66.5t-8.5 -43q-1 -3 -4 -11
t-7 -16t-8 -15t-6 -10q-24 5 -39 12.5t-15 32.5zM643 429q-12 0 -33.5 -17t-42.5 -39.5t-37 -45t-16 -33.5q6 0 23.5 0.5t37 1t37 1.5t24.5 1q4 0 12.5 2t16.5 4t14.5 4t7.5 3q1 0 1 6.5v10.5q0 8 -2.5 25t-8 34t-14 29.5t-20.5 12.5zM362 428q0 -14 10 -32t25 -34t32 -27
t32 -11q14 0 33 17t36.5 39.5t29.5 43.5t12 29q0 17 -11.5 25.5t-27 12t-32.5 3.5h-28q-14 0 -33.5 -2.5t-36.5 -9.5t-29 -20t-12 -34zM662 479q22 -26 41 -56t36 -61l89 320zM719 1004q15 -36 38 -55t49 -25.5t51 -2t44.5 16.5t29 29.5t4.5 36.5l48 -35q-11 -35 -34 -59
t-51.5 -36.5t-60.5 -13t-61 12t-52 38.5t-35 67z" />
    <glyph glyph-name="abreve" unicode="&#x103;" horiz-adv-x="432" 
d="M18 65q9 57 34 105t57.5 83.5t70.5 58.5t74 29.5t66.5 -3.5t49.5 -40q0 -23 -10.5 -44t-23 -42t-23 -43t-10.5 -47q0 -26 11.5 -41.5t40.5 -15.5q24 0 46.5 7t45.5 7q4 0 13.5 -0.5t12.5 -0.5q-12 -17 -31 -29t-40 -20.5t-43.5 -12.5t-41.5 -4q-18 0 -32 8t-24 21
t-15.5 29.5t-5.5 32.5q-15 -17 -32.5 -35.5t-37 -33.5t-42 -25t-46.5 -10q-26 0 -45 19.5t-19 46.5zM84 96q0 -8 0.5 -18t12.5 -13q25 6 57 26.5t60 48t47 59t19 60.5q0 2 -0.5 6.5t-0.5 6.5q-34 0 -69 -14t-63 -38.5t-45.5 -56.5t-17.5 -67zM116 593q15 -36 38 -55
t49 -25.5t51 -2t44.5 16.5t29 29.5t4.5 36.5l48 -35q-11 -35 -34 -59t-51.5 -36.5t-60.5 -13t-61 12t-52 38.5t-35 67z" />
    <glyph glyph-name="Aogonek" unicode="&#x104;" horiz-adv-x="878" 
d="M776 -156q-29 0 -66.5 5t-70.5 14.5t-55.5 24t-22.5 33.5q4 30 21.5 55.5t39.5 43.5q18 14 38 22v3q0 25 3.5 50t8 49.5t8 50t3.5 51.5q-33 0 -57 -3t-47 -6t-49 -4.5t-63 0.5q-27 -30 -61.5 -64t-73.5 -63t-82 -48.5t-87 -19.5q-30 0 -57.5 10t-48.5 28t-33 43.5
t-12 56.5q0 16 5.5 24.5t23.5 8.5q9 0 16 -16.5t18.5 -37t29.5 -37t49 -16.5q38 0 74.5 14.5t70 37t63 50.5t53.5 55q-3 25 -18 37t-31.5 24t-29.5 32t-13 63q0 61 37 95.5t101 34.5q19 0 37.5 -4t37.5 -9.5t37.5 -9.5t37.5 -4q12 0 19.5 3t13.5 9t13 16t18 24
q6 8 18.5 25.5t27.5 39t32 45.5t32 46t27 39t17 26q11 9 20 11.5t21 2.5t18 -8.5t7.5 -20.5t1 -24.5t-0.5 -19.5v-10q0 -6 -0.5 -13t-0.5 -14v-8q-3 -10 -9.5 -30t-14.5 -45.5t-16.5 -53.5t-16 -54t-13.5 -46t-8 -30q-1 -5 -3 -16t-4 -23.5t-4 -23.5t-2 -15q9 -2 18 -6
t9 -13q0 -10 -7.5 -16t-17.5 -11t-18.5 -12t-9.5 -20q-2 -12 -7 -43.5t-11.5 -67t-12 -66.5t-8.5 -43q-1 -3 -4 -11t-7 -16t-8 -15t-6 -10q-15 3 -27 7q-9 -10 -17 -18q-9 -10 -16.5 -20t-10.5 -30q-9 -19 -0.5 -28t29.5 -13t51.5 -4.5t63.5 -2.5zM362 428q0 -14 10 -32
t25 -34t32 -27t32 -11q14 0 33 17t36.5 39.5t29.5 43.5t12 29q0 17 -11.5 25.5t-27 12t-32.5 3.5h-28q-14 0 -33.5 -2.5t-36.5 -9.5t-29 -20t-12 -34zM662 479q22 -26 41 -56t36 -61l89 320zM643 429q-12 0 -33.5 -17t-42.5 -39.5t-37 -45t-16 -33.5q6 0 23.5 0.5t37 1
t37 1.5t24.5 1q4 0 12.5 2t16.5 4t14.5 4t7.5 3q1 0 1 6v11q0 8 -2.5 25t-8 34t-14 29.5t-20.5 12.5z" />
    <glyph glyph-name="aogonek" unicode="&#x105;" horiz-adv-x="432" 
d="M462 -173q-29 0 -66.5 5t-70.5 14.5t-55.5 24t-22.5 33.5q4 30 21.5 55.5t39.5 43.5q6 5 12 9h-3q-18 0 -32 8t-24 21t-15.5 29.5t-5.5 32.5q-15 -17 -32.5 -35.5t-37 -33.5t-42 -25t-46.5 -10q-26 0 -45 19.5t-19 46.5q9 57 34 105t57.5 83.5t70.5 58.5t74 29.5
t66.5 -3.5t49.5 -40q0 -23 -10.5 -44t-23 -42t-23 -43t-10.5 -47q0 -26 11.5 -41.5t40.5 -15.5q24 0 46.5 7t45.5 7q4 0 13.5 -0.5t12.5 -0.5q-12 -17 -31 -29t-40 -21q-4 -1 -8 -3q-8 -20 -17 -31q-11 -13 -20.5 -22.5t-17 -19.5t-10.5 -30q-9 -19 -0.5 -28t29.5 -13
t51.5 -4.5t63.5 -2.5zM84 96q0 -8 0.5 -18t12.5 -13q25 6 57 26.5t60 48t47 59t19 60.5q0 2 -0.5 6.5t-0.5 6.5q-34 0 -69 -14t-63 -38.5t-45.5 -56.5t-17.5 -67z" />
    <glyph glyph-name="Cacute" unicode="&#x106;" horiz-adv-x="442" 
d="M13 111q7 58 25 110.5t44 102t58 97.5t68 97q21 27 46 55t54 51t62.5 37.5t70.5 14.5q20 0 31 -2.5t16.5 -10t6.5 -21.5t0 -36q0 -25 -9 -51t-25 -49t-38 -40.5t-47 -25.5v14q0 21 9.5 40t21.5 38.5t21.5 40.5t9.5 45q-11 0 -19 1.5t-14.5 2t-13 -2t-15.5 -10.5
q-49 -40 -100.5 -93.5t-93.5 -115.5t-68.5 -129.5t-26.5 -135.5q0 -3 0.5 -10l1 -14t1.5 -13t1 -7q11 -11 26.5 -13t23.5 -2q43 0 80.5 15t73.5 32.5t72.5 32.5t77.5 15q0 -16 -18.5 -35.5t-48 -38.5t-65.5 -36.5t-70.5 -31.5t-63 -22t-43.5 -8q-22 0 -44 8.5t-39.5 23.5
t-28.5 35.5t-11 44.5zM459 921q17 -1 15 -16.5t-14.5 -37t-31.5 -45.5t-38 -41.5t-33.5 -24.5t-16.5 5q4 10 18 34t32 49.5t36.5 47.5t32.5 29z" />
    <glyph glyph-name="cacute" unicode="&#x107;" horiz-adv-x="348" 
d="M253 362q-23 -3 -53 -28.5t-57.5 -62t-46.5 -79t-19 -78.5q0 -29 15 -40.5t43 -11.5q30 0 58.5 7.5t57 16t57 16t58.5 7.5q0 -14 -4 -23.5t-12 -20.5q-52 -25 -107 -45.5t-115 -20.5q-18 0 -38 6.5t-37 18.5t-28.5 29t-11.5 38q0 45 13 87.5t36 80.5t55.5 70t70.5 56v1
q15 9 34.5 17.5t36.5 10t28.5 -8t11.5 -35.5q0 -12 -2 -31.5t-11 -27.5q-8 -5 -21 -9q-6 -2 -12 -3v63zM221 611q17 -1 15 -16.5t-14.5 -37t-31.5 -45.5t-38 -41.5t-33.5 -24.5t-16.5 5q4 10 18 34t32 49.5t36.5 47.5t32.5 29z" />
    <glyph glyph-name="Ccircumflex" unicode="&#x108;" horiz-adv-x="442" 
d="M13 111q7 58 25 110.5t44 102t58 97.5t68 97q21 27 46 55t54 51t62.5 37.5t70.5 14.5q20 0 31 -2.5t16.5 -10t6.5 -21.5t0 -36q0 -25 -9 -51t-25 -49t-38 -40.5t-47 -25.5v14q0 21 9.5 40t21.5 38.5t21.5 40.5t9.5 45q-11 0 -19 1.5t-14.5 2t-13 -2t-15.5 -10.5
q-49 -40 -100.5 -93.5t-93.5 -115.5t-68.5 -129.5t-26.5 -135.5q0 -3 0.5 -10l1 -14t1.5 -13t1 -7q11 -11 26.5 -13t23.5 -2q43 0 80.5 15t73.5 32.5t72.5 32.5t77.5 15q0 -16 -18.5 -35.5t-48 -38.5t-65.5 -36.5t-70.5 -31.5t-63 -22t-43.5 -8q-22 0 -44 8.5t-39.5 23.5
t-28.5 35.5t-11 44.5zM214 772q0 8 9.5 25.5t24.5 39t33.5 44t36 40.5t32.5 30t23 12q16 0 33.5 -10t35 -26.5t33.5 -36t28 -39t19.5 -36t7.5 -25.5q-1 -21 -11.5 -19t-25.5 17t-32 37.5t-32 43t-26 32.5t-13 6q-7 0 -9.5 -2t-7.5 -7q-21 -9 -38.5 -26t-31.5 -36t-26 -37
t-22.5 -29t-20.5 -12t-20 14z" />
    <glyph glyph-name="ccircumflex" unicode="&#x109;" horiz-adv-x="348" 
d="M253 362q-23 -3 -53 -28.5t-57.5 -62t-46.5 -79t-19 -78.5q0 -29 15 -40.5t43 -11.5q30 0 58.5 7.5t57 16t57 16t58.5 7.5q0 -14 -4 -23.5t-12 -20.5q-52 -25 -107 -45.5t-115 -20.5q-18 0 -38 6.5t-37 18.5t-28.5 29t-11.5 38q0 45 13 87.5t36 80.5t55.5 70t70.5 56v1
q15 9 34.5 17.5t36.5 10t28.5 -8t11.5 -35.5q0 -12 -2 -31.5t-11 -27.5q-8 -5 -21 -9q-6 -2 -12 -3v63zM14 474q0 8 9.5 25.5t24.5 39t33.5 44t36 40.5t32.5 30t23 12q16 0 33.5 -10t35 -26.5t33.5 -36t28 -39t19.5 -36t7.5 -25.5q-1 -21 -11.5 -19t-25.5 17t-32 37.5
t-32 43t-26 32.5t-13 6q-7 0 -9.5 -2t-7.5 -7q-21 -9 -38.5 -26t-31.5 -36t-26 -37t-22.5 -29t-20.5 -12t-20 14z" />
    <glyph glyph-name="Cdotaccent" unicode="&#x10a;" horiz-adv-x="442" 
d="M13 111q7 58 25 110.5t44 102t58 97.5t68 97q21 27 46 55t54 51t62.5 37.5t70.5 14.5q20 0 31 -2.5t16.5 -10t6.5 -21.5t0 -36q0 -25 -9 -51t-25 -49t-38 -40.5t-47 -25.5v14q0 21 9.5 40t21.5 38.5t21.5 40.5t9.5 45q-11 0 -19 1.5t-14.5 2t-13 -2t-15.5 -10.5
q-49 -40 -100.5 -93.5t-93.5 -115.5t-68.5 -129.5t-26.5 -135.5q0 -3 0.5 -10l1 -14t1.5 -13t1 -7q11 -11 26.5 -13t23.5 -2q43 0 80.5 15t73.5 32.5t72.5 32.5t77.5 15q0 -16 -18.5 -35.5t-48 -38.5t-65.5 -36.5t-70.5 -31.5t-63 -22t-43.5 -8q-22 0 -44 8.5t-39.5 23.5
t-28.5 35.5t-11 44.5zM348 791q1 13 11.5 21.5t24 9t26.5 -10.5t20 -37q0 -22 -12 -35t-34 -13q-3 0 -9 -1.5t-12 3t-10.5 18.5t-4.5 45z" />
    <glyph glyph-name="cdotaccent" unicode="&#x10b;" horiz-adv-x="348" 
d="M253 362q-23 -3 -53 -28.5t-57.5 -62t-46.5 -79t-19 -78.5q0 -29 15 -40.5t43 -11.5q30 0 58.5 7.5t57 16t57 16t58.5 7.5q0 -14 -4 -23.5t-12 -20.5q-52 -25 -107 -45.5t-115 -20.5q-18 0 -38 6.5t-37 18.5t-28.5 29t-11.5 38q0 45 13 87.5t36 80.5t55.5 70t70.5 56v1
q15 9 34.5 17.5t36.5 10t28.5 -8t11.5 -35.5q0 -12 -2 -31.5t-11 -27.5q-8 -5 -21 -9q-6 -2 -12 -3v63zM133 604q1 13 11.5 21.5t24 9t26.5 -10.5t20 -37q0 -22 -12 -35t-34 -13q-3 0 -9 -1.5t-12 3t-10.5 18.5t-4.5 45z" />
    <glyph glyph-name="Ccaron" unicode="&#x10c;" horiz-adv-x="442" 
d="M13 111q7 58 25 110.5t44 102t58 97.5t68 97q21 27 46 55t54 51t62.5 37.5t70.5 14.5q20 0 31 -2.5t16.5 -10t6.5 -21.5t0 -36q0 -25 -9 -51t-25 -49t-38 -40.5t-47 -25.5v14q0 21 9.5 40t21.5 38.5t21.5 40.5t9.5 45q-11 0 -19 1.5t-14.5 2t-13 -2t-15.5 -10.5
q-49 -40 -100.5 -93.5t-93.5 -115.5t-68.5 -129.5t-26.5 -135.5q0 -3 0.5 -10l1 -14t1.5 -13t1 -7q11 -11 26.5 -13t23.5 -2q43 0 80.5 15t73.5 32.5t72.5 32.5t77.5 15q0 -16 -18.5 -35.5t-48 -38.5t-65.5 -36.5t-70.5 -31.5t-63 -22t-43.5 -8q-22 0 -44 8.5t-39.5 23.5
t-28.5 35.5t-11 44.5zM230 878q13 15 26 7t28.5 -25.5t35 -38t47.5 -29.5q5 -3 7 -4.5t8 -1.5q2 -4 11.5 4t23 21.5t28 29t27.5 26t22 11.5t10 -13q0 -9 -13.5 -29t-34 -39.5t-44.5 -34.5t-45 -15q-11 0 -33.5 17t-45.5 39.5t-40.5 44t-17.5 30.5z" />
    <glyph glyph-name="ccaron" unicode="&#x10d;" horiz-adv-x="348" 
d="M253 362q-23 -3 -53 -28.5t-57.5 -62t-46.5 -79t-19 -78.5q0 -29 15 -40.5t43 -11.5q30 0 58.5 7.5t57 16t57 16t58.5 7.5q0 -14 -4 -23.5t-12 -20.5q-52 -25 -107 -45.5t-115 -20.5q-18 0 -38 6.5t-37 18.5t-28.5 29t-11.5 38q0 45 13 87.5t36 80.5t55.5 70t70.5 56v1
q15 9 34.5 17.5t36.5 10t28.5 -8t11.5 -35.5q0 -12 -2 -31.5t-11 -27.5q-8 -5 -21 -9q-6 -2 -12 -3v63zM39 590q13 15 26 7t28.5 -25.5t35 -38t47.5 -29.5q5 -3 7 -4.5t8 -1.5q2 -4 11.5 4t23 21.5t28 29t27.5 26t22 11.5t10 -13q0 -9 -13.5 -29t-34 -39.5t-44.5 -34.5
t-45 -15q-11 0 -33.5 17t-45.5 39.5t-40.5 44t-17.5 30.5z" />
    <glyph glyph-name="Dcaron" unicode="&#x10e;" horiz-adv-x="752" 
d="M6 26q0 15 10 33.5t23.5 35t26 29.5t18.5 18l220 403q10 8 18 20.5t16.5 24t19 19.5t25.5 8q0 -16 -3.5 -38.5t-10.5 -33.5l-189 -337q30 12 55.5 7.5t47.5 -17.5t41.5 -31.5t37 -35.5t33.5 -29t32 -12q35 0 68 35t63 90t55 122t43 130.5t28 116t10 78.5q0 14 -2.5 30.5
t-9.5 30t-18.5 22.5t-29.5 9q-27 0 -49 -23t-40 -59t-31.5 -80.5t-23 -86.5t-14 -77t-4.5 -53q0 -20 4.5 -38t10.5 -35t10.5 -34.5t4.5 -36.5q-28 0 -44.5 14t-24.5 35t-10.5 45.5t-2.5 45.5q0 24 6.5 67t19 92.5t31 100.5t43 92.5t55 68t66.5 26.5q3 0 13.5 -1t13.5 -1
q16 -20 28 -38t20.5 -36t12.5 -38t4 -45q0 -31 -9.5 -90t-27.5 -129.5t-44 -144t-60 -133.5t-75 -98.5t-88 -38.5q-32 0 -54.5 10t-39.5 24.5t-31 32t-29 32t-33 24.5t-44 10q-27 0 -47 -17t-35 -42t-26 -52t-19 -47q-2 0 -6.5 -0.5t-6.5 -0.5q-5 0 -13.5 2t-17 5.5t-15 8.5
t-6.5 11zM389 1012q13 15 26 7t28.5 -25.5t35 -38t47.5 -29.5q5 -3 7 -4.5t8 -1.5q2 -4 11.5 4t23 21.5t28 29t27.5 26t22 11.5t10 -13q0 -9 -13.5 -29t-34 -39.5t-44.5 -34.5t-45 -15q-11 0 -33.5 17t-45.5 39.5t-40.5 44t-17.5 30.5z" />
    <glyph glyph-name="dcaron" unicode="&#x10f;" horiz-adv-x="660" 
d="M12 99q0 50 28.5 98t72.5 85t97 59.5t101 22.5q19 0 36 -7t36 -7h6q5 11 19.5 39t31 59t31.5 58.5t22 38.5q11 19 30 47.5t37.5 55.5t32.5 46t16 19l39 -39q0 -2 -7.5 -18t-19.5 -41.5t-27.5 -56.5t-31.5 -62t-30.5 -59.5t-25.5 -47.5q-31 -47 -62.5 -95.5t-50 -90
t-18 -72.5t33.5 -43q60 11 90 9t37.5 -10.5t-2.5 -20t-31.5 -20.5t-49.5 -12t-56 6t-51 33t-35 69l-155 -129l-7.5 -2t-18 -4t-21.5 -4t-18 -3h-6q-23 0 -37.5 8.5t-22.5 22t-10.5 31.5t-2.5 37zM77 110q0 -6 -0.5 -14t1 -14.5t6 -11.5t13.5 -5q13 0 31.5 9.5t36.5 22.5
t33.5 26t22.5 19q7 7 26 25.5t39.5 39.5t38.5 39t25 26v3q0 2 0.5 2.5t0.5 1.5q0 9 -5.5 13.5t-13 6t-15.5 1t-13 -0.5q-36 0 -76 -15t-73.5 -40.5t-55.5 -60t-22 -73.5zM787 637q0 -15 -3.5 -31t-12.5 -30t-24 -23t-38 -9q0 14 3 25.5t7 23t7 24t3 27.5q0 30 -10 47.5
t-21.5 28t-21.5 16.5t-10 14q0 9 5.5 17t19.5 8q27 0 45.5 -15.5t29.5 -37.5t16 -45.5t5 -39.5z" />
    <glyph glyph-name="Dcroat" unicode="&#x110;" horiz-adv-x="752" 
d="M81 418q27 3 63 4t74 2h20l66 121q10 8 18 20.5t16.5 24t19 19.5t25.5 8q0 -16 -3.5 -38.5t-10.5 -33.5l-68 -120h56q17 0 31 -7.5t21 -30.5q-26 -5 -58.5 -8.5t-67.5 -6.5l-12 -1l-91 -163q30 12 55.5 7.5t47.5 -17.5t41.5 -31.5t37 -35.5t33.5 -29t32 -12q35 0 68 35
t63 90t55 122t43 130.5t28 116t10 78.5q0 14 -2.5 30.5t-9.5 30t-18.5 22.5t-29.5 9q-27 0 -49 -23t-40 -59t-31.5 -80.5t-23 -86.5t-14 -77t-4.5 -53q0 -20 4.5 -38t10.5 -35t10.5 -34.5t4.5 -36.5q-28 0 -44.5 14t-24.5 35t-10.5 45.5t-2.5 45.5q0 24 6.5 67t19 92.5
t31 100.5t43 92.5t55 68t66.5 26.5q3 0 13.5 -1t13.5 -1q16 -20 28 -38t20.5 -36t12.5 -38t4 -45q0 -31 -9.5 -90t-27.5 -129.5t-44 -144t-60 -133.5t-75 -98.5t-88 -38.5q-32 0 -54.5 10t-39.5 24.5t-31 32t-29 32t-33 24.5t-44 10q-27 0 -47 -17t-35 -42t-26 -52t-19 -47
q-2 0 -6.5 -0.5t-6.5 -0.5q-5 0 -13.5 2t-17 5.5t-15 8.5t-6.5 11q0 15 10 33.5t23.5 35t26 29.5t18.5 18l123 226h-55q-28 1 -48.5 3.5t-28.5 6.5z" />
    <glyph glyph-name="dcroat" unicode="&#x111;" horiz-adv-x="520" 
d="M360 510q27 3 58 7q31 5 64 9q7 12 11 19q11 19 30 47.5t37.5 55.5t32.5 46t16 19l39 -39q0 -2 -7.5 -18t-19.5 -41.5t-28 -56.5l-10 -22q14 1 27 1q8 0 17 0.5t17.5 -2t15.5 -8t10 -17.5q-6 -11 -24 -19.5t-43 -14.5t-53 -10h-4q-7 -15 -15 -30q-14 -28 -25 -47
q-31 -47 -62.5 -95.5t-50 -90t-18 -72.5t33.5 -43q60 11 90 9t37.5 -10.5t-2.5 -20t-31.5 -20.5t-49.5 -12t-56 6t-51 33t-35 69l-155 -129l-8 -2q-7 -2 -17.5 -4t-21.5 -4t-18 -3h-6q-23 0 -37.5 8.5t-22.5 22t-10.5 31.5t-2.5 37q0 50 28.5 98t72.5 85t97 59.5t101 22.5
q19 0 36 -7t36 -7h6q5 11 19.5 39t30.5 59q3 4 5 9h-8q-9 0 -22 1.5t-25 5t-20.5 8.5t-8.5 11v27zM77 110q0 -6 -0.5 -14t1 -14.5t6 -11.5t13.5 -5q13 0 31.5 9.5t36.5 22.5t33.5 26t22.5 19q7 7 26 25.5t39.5 39.5t38.5 39t25 26v5l1 2q0 9 -5.5 13.5t-13 6t-15.5 1
t-13 -0.5q-36 0 -76 -15t-73.5 -40.5t-55.5 -60t-22 -73.5z" />
    <glyph glyph-name="Emacron" unicode="&#x112;" horiz-adv-x="435" 
d="M12 131q3 48 29 90.5t61.5 79.5t75 68.5t69.5 58.5q0 6 -5.5 16t-8.5 35q0 44 20 80.5t52.5 62t73 39.5t82.5 14q18 0 30 -13.5t19 -32.5t9.5 -39t2.5 -33h-35q0 11 -2.5 23t-8 21.5t-14 16t-21.5 6.5q-23 0 -50 -12.5t-50.5 -32t-39.5 -44.5t-16 -50q0 -13 8.5 -18.5
t22 -7.5t28.5 -2t28.5 -1.5t22 -7.5t8.5 -19q0 -8 -2 -15.5t-12 -12.5q-58 -15 -104.5 -35.5t-84.5 -49t-70.5 -67.5t-63.5 -93q0 -2 -0.5 -10t-0.5 -10q0 -36 20.5 -54.5t54.5 -18.5q38 0 85.5 12t92.5 26t82.5 26t55.5 12q-1 -22 -19 -42t-47 -36.5t-65.5 -29.5t-74 -21
t-73 -11t-62.5 0q-26 0 -45.5 12t-32 31t-19 42.5t-6.5 46.5zM238 810q27 3 63 4t74 2t74 1h65q17 0 31 -7.5t21 -30.5q-26 -5 -58.5 -8.5t-67 -6t-68.5 -3.5t-62.5 -0.5t-49 3t-28.5 6.5z" />
    <glyph glyph-name="emacron" unicode="&#x113;" 
d="M16 52q-17 38 -15 74.5t16.5 69t38 59t50.5 46t54.5 29.5t48.5 8.5t33 -15.5t8 -43q0 -39 -24.5 -68t-54 -52t-54 -41.5t-24.5 -34.5q0 -9 10.5 -14t24.5 -7.5t28 -3.5t20 -2q94 20 141 24.5t59 -1t-4.5 -17t-50.5 -24t-79 -22.5t-89 -11.5t-81.5 8.5t-55.5 38zM191 280
q-20 0 -38 -11t-32.5 -27.5t-24.5 -36t-15 -36.5q2 -1 3 -1h3q14 0 32 12t34 29.5t27 36.5t11 34zM9 491q27 3 63 4t74 2t74 1h65q17 0 31 -7.5t21 -30.5q-26 -5 -58.5 -8.5t-67 -6t-68.5 -3.5t-62.5 -0.5t-49 3t-28.5 6.5z" />
    <glyph glyph-name="Ebreve" unicode="&#x114;" horiz-adv-x="435" 
d="M12 131q3 48 29 90.5t61.5 79.5t75 68.5t69.5 58.5q0 6 -5.5 16t-8.5 35q0 44 20 80.5t52.5 62t73 39.5t82.5 14q18 0 30 -13.5t19 -32.5t9.5 -39t2.5 -33h-35q0 11 -2.5 23t-8 21.5t-14 16t-21.5 6.5q-23 0 -50 -12.5t-50.5 -32t-39.5 -44.5t-16 -50q0 -13 8.5 -18.5
t22 -7.5t28.5 -2t28.5 -1.5t22 -7.5t8.5 -19q0 -8 -2 -15.5t-12 -12.5q-58 -15 -104.5 -35.5t-84.5 -49t-70.5 -67.5t-63.5 -93q0 -2 -0.5 -10t-0.5 -10q0 -36 20.5 -54.5t54.5 -18.5q38 0 85.5 12t92.5 26t82.5 26t55.5 12q-1 -22 -19 -42t-47 -36.5t-65.5 -29.5t-74 -21
t-73 -11t-62.5 0q-26 0 -45.5 12t-32 31t-19 42.5t-6.5 46.5zM227 874q15 -36 38 -55t49 -25.5t51 -2t44.5 16.5t29 29.5t4.5 36.5l48 -35q-11 -35 -34 -59t-51.5 -36.5t-60.5 -13t-61 12t-52 38.5t-35 67z" />
    <glyph glyph-name="ebreve" unicode="&#x115;" 
d="M16 52q-17 38 -15 74.5t16.5 69t38 59t50.5 46t54.5 29.5t48.5 8.5t33 -15.5t8 -43q0 -39 -24.5 -68t-54 -52t-54 -41.5t-24.5 -34.5q0 -9 10.5 -14t24.5 -7.5t28 -3.5t20 -2q94 20 141 24.5t59 -1t-4.5 -17t-50.5 -24t-79 -22.5t-89 -11.5t-81.5 8.5t-55.5 38zM191 280
q-20 0 -38 -11t-32.5 -27.5t-24.5 -36t-15 -36.5q2 -1 3 -1h3q14 0 32 12t34 29.5t27 36.5t11 34zM30 542q15 -36 38 -55t49 -25.5t51 -2t44.5 16.5t29 29.5t4.5 36.5l48 -35q-11 -35 -34 -59t-51.5 -36.5t-60.5 -13t-61 12t-52 38.5t-35 67z" />
    <glyph glyph-name="Edotaccent" unicode="&#x116;" horiz-adv-x="435" 
d="M12 131q3 48 29 90.5t61.5 79.5t75 68.5t69.5 58.5q0 6 -5.5 16t-8.5 35q0 44 20 80.5t52.5 62t73 39.5t82.5 14q18 0 30 -13.5t19 -32.5t9.5 -39t2.5 -33h-35q0 11 -2.5 23t-8 21.5t-14 16t-21.5 6.5q-23 0 -50 -12.5t-50.5 -32t-39.5 -44.5t-16 -50q0 -13 8.5 -18.5
t22 -7.5t28.5 -2t28.5 -1.5t22 -7.5t8.5 -19q0 -8 -2 -15.5t-12 -12.5q-58 -15 -104.5 -35.5t-84.5 -49t-70.5 -67.5t-63.5 -93q0 -2 -0.5 -10t-0.5 -10q0 -36 20.5 -54.5t54.5 -18.5q38 0 85.5 12t92.5 26t82.5 26t55.5 12q-1 -22 -19 -42t-47 -36.5t-65.5 -29.5t-74 -21
t-73 -11t-62.5 0q-26 0 -45.5 12t-32 31t-19 42.5t-6.5 46.5zM357 814q1 13 11.5 21.5t24 9t26.5 -10.5t20 -37q0 -22 -12 -35t-34 -13q-3 0 -9 -1.5t-12 3t-10.5 18.5t-4.5 45z" />
    <glyph glyph-name="edotaccent" unicode="&#x117;" 
d="M16 52q-17 38 -15 74.5t16.5 69t38 59t50.5 46t54.5 29.5t48.5 8.5t33 -15.5t8 -43q0 -39 -24.5 -68t-54 -52t-54 -41.5t-24.5 -34.5q0 -9 10.5 -14t24.5 -7.5t28 -3.5t20 -2q94 20 141 24.5t59 -1t-4.5 -17t-50.5 -24t-79 -22.5t-89 -11.5t-81.5 8.5t-55.5 38zM191 280
q-20 0 -38 -11t-32.5 -27.5t-24.5 -36t-15 -36.5q2 -1 3 -1h3q14 0 32 12t34 29.5t27 36.5t11 34zM121 481q1 13 11.5 21.5t24 9t26.5 -10.5t20 -37q0 -22 -12 -35t-34 -13q-3 0 -9 -1.5t-12 3t-10.5 18.5t-4.5 45z" />
    <glyph glyph-name="Eogonek" unicode="&#x118;" horiz-adv-x="435" 
d="M420 -142q-29 0 -66.5 5t-70.5 14.5t-55.5 24t-22.5 33.5q4 30 21 56q6 9 13 16q-32 -6 -62 -8q-35 -3 -62 0q-26 0 -45.5 12t-32 31t-19 42.5t-6.5 46.5q3 48 29 90.5t61.5 79.5t75 68.5t69.5 58.5q0 6 -5.5 16t-8.5 35q0 44 20 80.5t52.5 62t73 39.5t82.5 14
q18 0 30 -13.5t19 -32.5t9.5 -39t2.5 -33h-35q0 11 -2.5 23t-8 21.5t-14 16t-21.5 6.5q-23 0 -50 -12.5t-50.5 -32t-39.5 -44.5t-16 -50q0 -13 8.5 -18.5t22 -7.5t28.5 -2t28.5 -1.5t22 -7.5t8.5 -19q0 -8 -2 -15.5t-12 -12.5q-58 -15 -104.5 -35.5t-84.5 -49t-70.5 -67.5
t-63.5 -93q0 -2 -0.5 -10t-0.5 -10q0 -36 20.5 -54.5t54.5 -18.5q38 0 85.5 12t92.5 26t82.5 26t55.5 12q-1 -22 -19 -42t-47 -37q-21 -12 -46 -22q-5 -8 -9 -13q-11 -13 -20.5 -22.5t-17 -19.5t-10.5 -30q-9 -19 -0.5 -28t29.5 -13t51.5 -4.5t63.5 -2.5z" />
    <glyph glyph-name="eogonek" unicode="&#x119;" 
d="M261 -165q-29 0 -66.5 5t-70.5 14.5t-55.5 24t-22.5 33.5q4 30 21 56q16 23 36 39q-17 3 -32 7q-37 10 -55 38q-17 38 -15 74.5t16.5 69t38 59t50.5 46t54.5 29.5t48.5 8.5t33 -15.5t8 -43q0 -39 -24.5 -68t-54 -52t-54 -41.5t-24.5 -34.5q0 -9 10.5 -14t24.5 -7.5
t28 -3.5t20 -2q94 20 141 24.5t59 -1t-4.5 -17t-50.5 -24t-79 -22.5q-32 -7 -63 -10q-1 -3 -3 -5q-11 -13 -20.5 -22.5t-17 -19.5t-10.5 -30q-9 -19 -0.5 -28t29.5 -13t51.5 -4.5t63.5 -2.5zM191 280q-20 0 -38 -11t-32.5 -27.5t-24.5 -36t-15 -36.5q2 -1 3 -1h3q14 0 32 12
t34 29.5t27 36.5t11 34z" />
    <glyph glyph-name="Ecaron" unicode="&#x11a;" horiz-adv-x="435" 
d="M12 131q3 48 29 90.5t61.5 79.5t75 68.5t69.5 58.5q0 6 -5.5 16t-8.5 35q0 44 20 80.5t52.5 62t73 39.5t82.5 14q18 0 30 -13.5t19 -32.5t9.5 -39t2.5 -33h-35q0 11 -2.5 23t-8 21.5t-14 16t-21.5 6.5q-23 0 -50 -12.5t-50.5 -32t-39.5 -44.5t-16 -50q0 -13 8.5 -18.5
t22 -7.5t28.5 -2t28.5 -1.5t22 -7.5t8.5 -19q0 -8 -2 -15.5t-12 -12.5q-58 -15 -104.5 -35.5t-84.5 -49t-70.5 -67.5t-63.5 -93q0 -2 -0.5 -10t-0.5 -10q0 -36 20.5 -54.5t54.5 -18.5q38 0 85.5 12t92.5 26t82.5 26t55.5 12q-1 -22 -19 -42t-47 -36.5t-65.5 -29.5t-74 -21
t-73 -11t-62.5 0q-26 0 -45.5 12t-32 31t-19 42.5t-6.5 46.5zM227 848q13 15 26 7t28.5 -25.5t35 -38t47.5 -29.5q5 -3 7 -4.5t8 -1.5q2 -4 11.5 4t23 21.5t28 29t27.5 26t22 11.5t10 -13q0 -9 -13.5 -29t-34 -39.5t-44.5 -34.5t-45 -15q-11 0 -33.5 17t-45.5 39.5t-40.5 44
t-17.5 30.5z" />
    <glyph glyph-name="ecaron" unicode="&#x11b;" 
d="M16 52q-17 38 -15 74.5t16.5 69t38 59t50.5 46t54.5 29.5t48.5 8.5t33 -15.5t8 -43q0 -39 -24.5 -68t-54 -52t-54 -41.5t-24.5 -34.5q0 -9 10.5 -14t24.5 -7.5t28 -3.5t20 -2q94 20 141 24.5t59 -1t-4.5 -17t-50.5 -24t-79 -22.5t-89 -11.5t-81.5 8.5t-55.5 38zM191 280
q-20 0 -38 -11t-32.5 -27.5t-24.5 -36t-15 -36.5q2 -1 3 -1h3q14 0 32 12t34 29.5t27 36.5t11 34zM33 543q13 15 26 7t28.5 -25.5t35 -38t47.5 -29.5q5 -3 7 -4.5t8 -1.5q2 -4 11.5 4t23 21.5t28 29t27.5 26t22 11.5t10 -13q0 -9 -13.5 -29t-34 -39.5t-44.5 -34.5t-45 -15
q-11 0 -33.5 17t-45.5 39.5t-40.5 44t-17.5 30.5z" />
    <glyph glyph-name="Gcircumflex" unicode="&#x11c;" horiz-adv-x="699" 
d="M71 52q-3 6 -10.5 20.5t-16 31t-15.5 31.5t-10 21t-8 21t-5 18q0 11 5.5 25t14.5 26t21 20t24 8q2 0 6.5 -1t6.5 -1q-16 -20 -22 -35.5t-6 -35.5q0 -10 7 -26.5t18 -32.5t24 -27.5t24 -11.5h7q8 6 28.5 22.5t43.5 35.5t43 35.5t28 23.5q7 6 25 24t38.5 39t39 40t26.5 27
q2 1 6 6.5t8 12t7.5 12t4.5 8.5v6q0 16 -7 28.5t-7 29.5q0 30 19 77t50 100.5t70.5 107.5t80 97.5t78.5 71t67 27.5q20 0 29.5 -14t9.5 -31q0 -22 -14 -51.5t-33.5 -59.5t-39 -58t-30.5 -46q-4 -6 -19.5 -28.5t-33.5 -49t-33 -49.5t-19 -29q-2 -2 -6.5 -12t-5.5 -13
q37 14 75 41t67 50h13q18 0 29 -6.5t11 -26.5q0 -3 -0.5 -11t-1.5 -9l-154 -350q-22 -49 -56.5 -80t-77 -49.5t-90.5 -26t-97 -9.5t-96.5 -1.5t-88.5 -1.5q-2 0 -9.5 -2t-16.5 -4t-16.5 -4.5t-9.5 -2.5q-3 0 -11 -0.5t-17 -1t-17 -1t-11 -0.5q0 24 7 29.5t16 6.5t18.5 2.5
t14.5 16.5zM240 103q-17 -5 -29.5 -15t-23.5 -23h78q56 0 103 6t87 24t73 51t62 87q6 12 19.5 43t28 66.5t26.5 67t16 44.5h-3h-2q-1 0 -1 1q-33 0 -67.5 -14t-66.5 -35.5t-59.5 -47t-46.5 -47.5q-7 -8 -22 -24t-34 -36.5t-40.5 -43.5t-40.5 -43.5t-34.5 -36.5t-22.5 -24z
M745 868q-21 -18 -47 -45.5t-53.5 -61.5t-54 -71.5t-47 -74t-33 -70t-12.5 -59.5q0 -2 0.5 -9.5t0.5 -9.5q7 8 23.5 30t35 46.5t35 47.5t22.5 32q15 22 37 58t42.5 71.5t35.5 61.5t15 29v25zM533 1014q0 8 9.5 25.5t24.5 39t33.5 44t36 40.5t32.5 30t23 12q16 0 33.5 -10
t35 -26.5t33.5 -36t28 -39t19.5 -36t7.5 -25.5q-1 -21 -11.5 -19t-25.5 17t-32 37.5t-32 43t-26 32.5t-13 6q-7 0 -9.5 -2t-7.5 -7q-21 -9 -38.5 -26t-31.5 -36t-26 -37t-22.5 -29t-20.5 -12t-20 14z" />
    <glyph glyph-name="gcircumflex" unicode="&#x11d;" horiz-adv-x="451" 
d="M-176 -531q0 57 19.5 102t51.5 83.5t73 71t84 63t84 61.5t73 66t51.5 76t19.5 91v9.5t-1 9.5q-7 -6 -27 -17.5t-42.5 -24t-43.5 -22.5t-30 -13q-1 0 -7.5 -1t-15 -2t-16.5 -1.5t-13 -0.5q-45 8 -60 31.5t-8 55.5t31.5 68.5t59 70t75 60t79 38t71 5t50.5 -39.5
q6 -42 0 -78.5t-16 -71.5t-20 -70.5t-12 -77.5h9q6 6 20.5 21t31 31.5t31.5 31t21 20.5q3 3 12.5 8t13.5 5v-3v-2q0 -1 1 -1q0 -36 -20.5 -66t-49.5 -56t-60 -48.5t-52 -43.5q-17 -35 -37 -87.5t-44 -112t-53.5 -121t-66 -113.5t-80.5 -89.5t-98 -48.5q-26 0 -43.5 13
t-27.5 32.5t-14 43t-4 44.5zM-123 -585q8 -19 19 -23t25 -4q26 0 57 27t62.5 69.5t60.5 94.5t51.5 101t36 89.5t13.5 60.5q0 2 -0.5 6.5t-0.5 6.5q-3 -2 -13.5 -6.5t-12.5 -6.5q-42 -31 -94.5 -68.5t-98 -82.5t-76.5 -97.5t-31 -113.5v-11t0.5 -16t1 -15.5t0.5 -10.5z
M318 297q-16 0 -42 -10.5t-55.5 -28.5t-59.5 -41t-54.5 -48t-39.5 -50t-15 -46q21 0 51 8.5t62.5 23t64.5 34t57.5 41.5t41.5 45t16 45q0 27 -27 27zM84 418q0 8 9.5 25.5t24.5 39t33.5 44t36 40.5t32.5 30t23 12q16 0 33.5 -10t35 -26.5t33.5 -36t28 -39t19.5 -36
t7.5 -25.5q-1 -21 -11.5 -19t-25.5 17t-32 37.5t-32 43t-26 32.5t-13 6q-7 0 -9.5 -2t-7.5 -7q-21 -9 -38.5 -26t-31.5 -36t-26 -37t-22.5 -29t-20.5 -12t-20 14z" />
    <glyph glyph-name="Gbreve" unicode="&#x11e;" horiz-adv-x="699" 
d="M71 52q-3 6 -10.5 20.5t-16 31t-15.5 31.5t-10 21t-8 21t-5 18q0 11 5.5 25t14.5 26t21 20t24 8q2 0 6.5 -1t6.5 -1q-16 -20 -22 -35.5t-6 -35.5q0 -10 7 -26.5t18 -32.5t24 -27.5t24 -11.5h7q8 6 28.5 22.5t43.5 35.5t43 35.5t28 23.5q7 6 25 24t38.5 39t39 40t26.5 27
q2 1 6 6.5t8 12t7.5 12t4.5 8.5v6q0 16 -7 28.5t-7 29.5q0 30 19 77t50 100.5t70.5 107.5t80 97.5t78.5 71t67 27.5q20 0 29.5 -14t9.5 -31q0 -22 -14 -51.5t-33.5 -59.5t-39 -58t-30.5 -46q-4 -6 -19.5 -28.5t-33.5 -49t-33 -49.5t-19 -29q-2 -2 -6.5 -12t-5.5 -13
q37 14 75 41t67 50h13q18 0 29 -6.5t11 -26.5q0 -3 -0.5 -11t-1.5 -9l-154 -350q-22 -49 -56.5 -80t-77 -49.5t-90.5 -26t-97 -9.5t-96.5 -1.5t-88.5 -1.5q-2 0 -9.5 -2t-16.5 -4t-16.5 -4.5t-9.5 -2.5q-3 0 -11 -0.5t-17 -1t-17 -1t-11 -0.5q0 24 7 29.5t16 6.5t18.5 2.5
t14.5 16.5zM240 103q-17 -5 -29.5 -15t-23.5 -23h78q56 0 103 6t87 24t73 51t62 87q6 12 19.5 43t28 66.5t26.5 67t16 44.5h-3h-2q-1 0 -1 1q-33 0 -67.5 -14t-66.5 -35.5t-59.5 -47t-46.5 -47.5q-7 -8 -22 -24t-34 -36.5t-40.5 -43.5t-40.5 -43.5t-34.5 -36.5t-22.5 -24z
M745 868q-21 -18 -47 -45.5t-53.5 -61.5t-54 -71.5t-47 -74t-33 -70t-12.5 -59.5q0 -2 0.5 -9.5t0.5 -9.5q7 8 23.5 30t35 46.5t35 47.5t22.5 32q15 22 37 58t42.5 71.5t35.5 61.5t15 29v25zM638 1142q15 -36 38 -55t49 -25.5t51 -2t44.5 16.5t29 29.5t4.5 36.5l48 -35
q-11 -35 -34 -59t-51.5 -36.5t-60.5 -13t-61 12t-52 38.5t-35 67z" />
    <glyph glyph-name="gbreve" unicode="&#x11f;" horiz-adv-x="451" 
d="M-176 -531q0 57 19.5 102t51.5 83.5t73 71t84 63t84 61.5t73 66t51.5 76t19.5 91v9.5t-1 9.5q-7 -6 -27 -17.5t-42.5 -24t-43.5 -22.5t-30 -13q-1 0 -7.5 -1t-15 -2t-16.5 -1.5t-13 -0.5q-45 8 -60 31.5t-8 55.5t31.5 68.5t59 70t75 60t79 38t71 5t50.5 -39.5
q6 -42 0 -78.5t-16 -71.5t-20 -70.5t-12 -77.5h9q6 6 20.5 21t31 31.5t31.5 31t21 20.5q3 3 12.5 8t13.5 5v-3v-2q0 -1 1 -1q0 -36 -20.5 -66t-49.5 -56t-60 -48.5t-52 -43.5q-17 -35 -37 -87.5t-44 -112t-53.5 -121t-66 -113.5t-80.5 -89.5t-98 -48.5q-26 0 -43.5 13
t-27.5 32.5t-14 43t-4 44.5zM-123 -585q8 -19 19 -23t25 -4q26 0 57 27t62.5 69.5t60.5 94.5t51.5 101t36 89.5t13.5 60.5q0 2 -0.5 6.5t-0.5 6.5q-3 -2 -13.5 -6.5t-12.5 -6.5q-42 -31 -94.5 -68.5t-98 -82.5t-76.5 -97.5t-31 -113.5v-11t0.5 -16t1 -15.5t0.5 -10.5z
M318 297q-16 0 -42 -10.5t-55.5 -28.5t-59.5 -41t-54.5 -48t-39.5 -50t-15 -46q21 0 51 8.5t62.5 23t64.5 34t57.5 41.5t41.5 45t16 45q0 27 -27 27zM86 589q15 -36 38 -55t49 -25.5t51 -2t44.5 16.5t29 29.5t4.5 36.5l48 -35q-11 -35 -34 -59t-51.5 -36.5t-60.5 -13t-61 12
t-52 38.5t-35 67z" />
    <glyph glyph-name="Gdotaccent" unicode="&#x120;" horiz-adv-x="699" 
d="M71 52q-3 6 -10.5 20.5t-16 31t-15.5 31.5t-10 21t-8 21t-5 18q0 11 5.5 25t14.5 26t21 20t24 8q2 0 6.5 -1t6.5 -1q-16 -20 -22 -35.5t-6 -35.5q0 -10 7 -26.5t18 -32.5t24 -27.5t24 -11.5h7q8 6 28.5 22.5t43.5 35.5t43 35.5t28 23.5q7 6 25 24t38.5 39t39 40t26.5 27
q2 1 6 6.5t8 12t7.5 12t4.5 8.5v6q0 16 -7 28.5t-7 29.5q0 30 19 77t50 100.5t70.5 107.5t80 97.5t78.5 71t67 27.5q20 0 29.5 -14t9.5 -31q0 -22 -14 -51.5t-33.5 -59.5t-39 -58t-30.5 -46q-4 -6 -19.5 -28.5t-33.5 -49t-33 -49.5t-19 -29q-2 -2 -6.5 -12t-5.5 -13
q37 14 75 41t67 50h13q18 0 29 -6.5t11 -26.5q0 -3 -0.5 -11t-1.5 -9l-154 -350q-22 -49 -56.5 -80t-77 -49.5t-90.5 -26t-97 -9.5t-96.5 -1.5t-88.5 -1.5q-2 0 -9.5 -2t-16.5 -4t-16.5 -4.5t-9.5 -2.5q-3 0 -11 -0.5t-17 -1t-17 -1t-11 -0.5q0 24 7 29.5t16 6.5t18.5 2.5
t14.5 16.5zM240 103q-17 -5 -29.5 -15t-23.5 -23h78q56 0 103 6t87 24t73 51t62 87q6 12 19.5 43t28 66.5t26.5 67t16 44.5h-3h-2q-1 0 -1 1q-33 0 -67.5 -14t-66.5 -35.5t-59.5 -47t-46.5 -47.5q-7 -8 -22 -24t-34 -36.5t-40.5 -43.5t-40.5 -43.5t-34.5 -36.5t-22.5 -24z
M745 868q-21 -18 -47 -45.5t-53.5 -61.5t-54 -71.5t-47 -74t-33 -70t-12.5 -59.5q0 -2 0.5 -9.5t0.5 -9.5q7 8 23.5 30t35 46.5t35 47.5t22.5 32q15 22 37 58t42.5 71.5t35.5 61.5t15 29v25zM740 1068q1 13 11.5 21.5t24 9t26.5 -10.5t20 -37q0 -22 -12 -35t-34 -13
q-3 0 -9 -1.5t-12 3t-10.5 18.5t-4.5 45z" />
    <glyph glyph-name="gdotaccent" unicode="&#x121;" horiz-adv-x="451" 
d="M-176 -531q0 57 19.5 102t51.5 83.5t73 71t84 63t84 61.5t73 66t51.5 76t19.5 91v9.5t-1 9.5q-7 -6 -27 -17.5t-42.5 -24t-43.5 -22.5t-30 -13q-1 0 -7.5 -1t-15 -2t-16.5 -1.5t-13 -0.5q-45 8 -60 31.5t-8 55.5t31.5 68.5t59 70t75 60t79 38t71 5t50.5 -39.5
q6 -42 0 -78.5t-16 -71.5t-20 -70.5t-12 -77.5h9q6 6 20.5 21t31 31.5t31.5 31t21 20.5q3 3 12.5 8t13.5 5v-3v-2q0 -1 1 -1q0 -36 -20.5 -66t-49.5 -56t-60 -48.5t-52 -43.5q-17 -35 -37 -87.5t-44 -112t-53.5 -121t-66 -113.5t-80.5 -89.5t-98 -48.5q-26 0 -43.5 13
t-27.5 32.5t-14 43t-4 44.5zM-123 -585q8 -19 19 -23t25 -4q26 0 57 27t62.5 69.5t60.5 94.5t51.5 101t36 89.5t13.5 60.5q0 2 -0.5 6.5t-0.5 6.5q-3 -2 -13.5 -6.5t-12.5 -6.5q-42 -31 -94.5 -68.5t-98 -82.5t-76.5 -97.5t-31 -113.5v-11t0.5 -16t1 -15.5t0.5 -10.5z
M318 297q-16 0 -42 -10.5t-55.5 -28.5t-59.5 -41t-54.5 -48t-39.5 -50t-15 -46q21 0 51 8.5t62.5 23t64.5 34t57.5 41.5t41.5 45t16 45q0 27 -27 27zM184 604q1 13 11.5 21.5t24 9t26.5 -10.5t20 -37q0 -22 -12 -35t-34 -13q-3 0 -9 -1.5t-12 3t-10.5 18.5t-4.5 45z" />
    <glyph glyph-name="Gcommaaccent" unicode="&#x122;" horiz-adv-x="699" 
d="M71 52q-3 6 -10.5 20.5t-16 31t-15.5 31.5t-10 21t-8 21t-5 18q0 11 5.5 25t14.5 26t21 20t24 8q2 0 6.5 -1t6.5 -1q-16 -20 -22 -35.5t-6 -35.5q0 -10 7 -26.5t18 -32.5t24 -27.5t24 -11.5h7q8 6 28.5 22.5t43.5 35.5t43 35.5t28 23.5q7 6 25 24t38.5 39t39 40t26.5 27
q2 1 6 6.5t8 12t7.5 12t4.5 8.5v6q0 16 -7 28.5t-7 29.5q0 30 19 77t50 100.5t70.5 107.5t80 97.5t78.5 71t67 27.5q20 0 29.5 -14t9.5 -31q0 -22 -14 -51.5t-33.5 -59.5t-39 -58t-30.5 -46q-4 -6 -19.5 -28.5t-33.5 -49t-33 -49.5t-19 -29q-2 -2 -6.5 -12t-5.5 -13
q37 14 75 41t67 50h13q18 0 29 -6.5t11 -26.5q0 -3 -0.5 -11t-1.5 -9l-154 -350q-22 -49 -56.5 -80t-77 -49.5t-90.5 -26t-97 -9.5t-96.5 -1.5t-88.5 -1.5q-2 0 -9.5 -2t-16.5 -4t-16.5 -4.5t-9.5 -2.5q-3 0 -11 -0.5t-17 -1t-17 -1t-11 -0.5q0 24 7 29.5t16 6.5t18.5 2.5
t14.5 16.5zM240 103q-17 -5 -29.5 -15t-23.5 -23h78q56 0 103 6t87 24t73 51t62 87q6 12 19.5 43t28 66.5t26.5 67t16 44.5h-3h-2q-1 0 -1 1q-33 0 -67.5 -14t-66.5 -35.5t-59.5 -47t-46.5 -47.5q-7 -8 -22 -24t-34 -36.5t-40.5 -43.5t-40.5 -43.5t-34.5 -36.5t-22.5 -24z
M745 868q-21 -18 -47 -45.5t-53.5 -61.5t-54 -71.5t-47 -74t-33 -70t-12.5 -59.5q0 -2 0.5 -9.5t0.5 -9.5q7 8 23.5 30t35 46.5t35 47.5t22.5 32q15 22 37 58t42.5 71.5t35.5 61.5t15 29v25zM403 -160q0 15 -3 23.5t-6.5 15.5t-6.5 15t-3 22q19 0 39 -6t31 -23
q0 -3 0.5 -10.5t1 -15.5t1 -15.5t0.5 -10.5q0 -37 -18.5 -76t-49 -71.5t-69 -53t-78.5 -20.5q0 15 12 28.5t30 28.5t38.5 31.5t38.5 36.5t30 45t12 56z" />
    <glyph glyph-name="gcommaaccent" unicode="&#x123;" horiz-adv-x="451" 
d="M-176 -531q0 57 19.5 102t51.5 83.5t73 71t84 63t84 61.5t73 66t51.5 76t19.5 91v9.5t-1 9.5q-7 -6 -27 -17.5t-42.5 -24t-43.5 -22.5t-30 -13q-1 0 -7.5 -1t-15 -2t-16.5 -1.5t-13 -0.5q-45 8 -60 31.5t-8 55.5t31.5 68.5t59 70t75 60t79 38t71 5t50.5 -39.5
q6 -42 0 -78.5t-16 -71.5t-20 -70.5t-12 -77.5h9q6 6 20.5 21t31 31.5t31.5 31t21 20.5q3 3 12.5 8t13.5 5v-3v-2q0 -1 1 -1q0 -36 -20.5 -66t-49.5 -56t-60 -48.5t-52 -43.5q-17 -35 -37 -87.5t-44 -112t-53.5 -121t-66 -113.5t-80.5 -89.5t-98 -48.5q-26 0 -43.5 13
t-27.5 32.5t-14 43t-4 44.5zM-123 -585q8 -19 19 -23t25 -4q26 0 57 27t62.5 69.5t60.5 94.5t51.5 101t36 89.5t13.5 60.5q0 2 -0.5 6.5t-0.5 6.5q-3 -2 -13.5 -6.5t-12.5 -6.5q-42 -31 -94.5 -68.5t-98 -82.5t-76.5 -97.5t-31 -113.5v-11t0.5 -16t1 -15.5t0.5 -10.5z
M318 297q-16 0 -42 -10.5t-55.5 -28.5t-59.5 -41t-54.5 -48t-39.5 -50t-15 -46q21 0 51 8.5t62.5 23t64.5 34t57.5 41.5t41.5 45t16 45q0 27 -27 27zM177 514q0 16 4 39t14 44.5t26 36.5t39 15q12 0 16.5 -7.5t4.5 -16.5q0 -8 -8.5 -13.5t-18.5 -16t-18.5 -28t-8.5 -47.5
q0 -15 2.5 -27t6 -23t6 -22.5t2.5 -24.5q-20 0 -32.5 9t-20.5 22.5t-11 29.5t-3 30z" />
    <glyph glyph-name="Hcircumflex" unicode="&#x124;" horiz-adv-x="1013" 
d="M4 70q0 8 5 17t13 17t17 13t17 5h6.5t6.5 -1q-12 -13 -13.5 -26t-1.5 -28q0 -23 10.5 -37.5t26.5 -23t35.5 -12t37.5 -3.5q75 0 138 20.5t115.5 56t95.5 84t79.5 105t67 117.5t57.5 123h-3h-2q-1 0 -1 1q-30 0 -58 -16.5t-56 -37t-57 -37t-60 -16.5q0 8 23.5 30t59.5 51
t77.5 61t77 58.5t59.5 44l24 17.5q19 0 27 -15.5t8 -31.5q0 -3 -0.5 -10t-1.5 -8q-44 -95 -73 -158t-47 -101t-26.5 -56.5t-11 -24.5t-1 -4.5t4.5 2.5q10 4 39.5 10.5t63 13.5t63 12.5t40.5 7.5l12 12q44 92 90.5 182.5t91.5 181.5q19 16 25 7.5t5.5 -27.5t-6.5 -40.5
t-11 -31.5l-246 -543q-9 -20 -19 -24t-25 -4q-9 0 -20 1t-14 13q19 17 35.5 43.5t28.5 55t18.5 57t6.5 50.5q-2 0 -5.5 1t-5.5 0q-31 -10 -66 -15.5t-70 -12t-67 -17.5t-56 -32q-58 -49 -100 -87.5t-86 -65.5t-99 -41t-137 -14q-33 0 -62 6.5t-51.5 21.5t-35.5 40t-13 63z
M793 858q0 8 9.5 25.5t24.5 39t33.5 44t36 40.5t32.5 30t23 12q16 0 33.5 -10t35 -26.5t33.5 -36t28 -39t19.5 -36t7.5 -25.5q-1 -21 -11.5 -19t-25.5 17t-32 37.5t-32 43t-26 32.5t-13 6q-7 0 -9.5 -2t-7.5 -7q-21 -9 -38.5 -26t-31.5 -36t-26 -37t-22.5 -29t-20.5 -12
t-20 14z" />
    <glyph glyph-name="hcircumflex" unicode="&#x125;" horiz-adv-x="473" 
d="M354 -1q-25 -4 -45.5 8.5t-32.5 33t-14 45t10 44.5q44 57 60 90.5t11.5 47t-25 11t-49.5 -18t-62.5 -40.5t-62.5 -55t-50.5 -62.5t-27.5 -63.5q-10 -6 -17 -9.5t-16 -3.5q-15 0 -18 10t-3 21q0 25 15.5 51.5t36 50t39.5 43t27 31.5q25 41 50 88.5t50 97t51.5 98
t55.5 92.5q5 8 8.5 11t10.5 3q8 0 12 -3t8 -11q0 -4 -1.5 -13t-3 -19.5t-4 -19.5t-3.5 -12q-6 -12 -20 -42t-30.5 -64t-31.5 -66.5t-22 -48.5q15 10 27 15.5t23.5 8t24 3t27.5 0.5q36 -9 47.5 -27t7 -41.5t-19.5 -51.5t-31.5 -56.5t-29.5 -55t-12 -48.5q0 -9 4 -13t10 -6
t13 -2h13q21 0 40.5 6.5t38.5 14.5t38.5 14.5t40.5 6.5q0 -19 -19 -36t-45.5 -29.5t-55.5 -20t-48 -7.5zM212 664q0 8 9.5 25.5t24.5 39t33.5 44t36 40.5t32.5 30t23 12q16 0 33.5 -10t35 -26.5t33.5 -36t28 -39t19.5 -36t7.5 -25.5q-1 -21 -11.5 -19t-25.5 17t-32 37.5
t-32 43t-26 32.5t-13 6q-7 0 -9.5 -2t-7.5 -7q-21 -9 -38.5 -26t-31.5 -36t-26 -37t-22.5 -29t-20.5 -12t-20 14z" />
    <glyph glyph-name="hbar" unicode="&#x127;" horiz-adv-x="473" 
d="M124 456q27 3 63 4q31 1 64 1l30 55q27 49 56 93q5 8 8.5 11t10.5 3q8 0 12 -3t8 -11q0 -4 -1.5 -13t-3 -19.5t-4 -19.5t-3.5 -12q-6 -12 -20 -42q-9 -19 -19 -40h75q17 0 31 -7.5t21 -30.5q-26 -5 -58.5 -8.5t-67.5 -6.5l-28 -2l-16 -36q-15 -32 -22 -48q15 10 27 15.5
t23.5 8t24 3t27.5 0.5q36 -9 47.5 -27t7 -41.5t-19.5 -51.5t-31.5 -56.5t-29.5 -55t-12 -48.5q0 -9 4 -13t10 -6t13 -2h13q21 0 40.5 6.5t38.5 14.5t38.5 14.5t40.5 6.5q0 -19 -19 -36t-45.5 -29.5t-55.5 -20t-48 -7.5q-25 -4 -45.5 8.5t-32.5 33t-14 45t10 44.5
q44 57 60 90.5t11.5 47t-25 11t-49.5 -18t-62.5 -40.5t-62.5 -55t-50.5 -62.5t-27.5 -63.5q-10 -6 -17 -9.5t-16 -3.5q-15 0 -18 10t-3 21q0 25 15.5 51.5t36 50t39.5 43t27 31.5q25 41 50 88q22 42 43 85h-28q-28 1 -48.5 3.5t-28.5 6.5z" />
    <glyph glyph-name="Itilde" unicode="&#x128;" horiz-adv-x="821" 
d="M13 233q-1 4 0 11.5t3 16t5 15.5t6 9q0 1 6.5 2.5t10.5 1.5q16 0 25 -9t17.5 -19.5t20 -19.5t32.5 -9q56 0 103.5 19t89 41.5t79 41.5t73.5 19q0 -14 -12.5 -30t-30 -31t-36 -27t-29.5 -18q-33 -20 -60 -33.5t-55 -23t-59 -14.5t-72 -7q4 -5 15 -16l23.5 -23.5
l23.5 -23.5t16 -15q9 -8 21 -11.5t24.5 -4t25 0.5t23.5 1q25 0 58.5 3.5t65.5 13t57.5 27.5t35.5 48q2 6 7.5 25t13.5 44t17 54t17 54t14.5 44t8.5 25q18 36 42.5 75.5t54.5 74t64 61t71 36.5q35 0 50.5 -24t15.5 -54q0 -75 -31 -146t-78.5 -135t-105 -118t-110.5 -94
q0 -3 -1.5 -8.5t-3.5 -11.5t-4 -11.5t-3 -7.5q-1 -1 -2 -1h-3q-2 0 -4.5 0.5t-3.5 0.5q-5 1 -19.5 6t-19.5 7q-9 -3 -31 -11t-47 -16t-47 -15t-31 -10q-2 -1 -10 -2.5t-18.5 -3.5t-20.5 -4l-15 -3h-7q-46 0 -87 22.5t-74.5 57t-60 75.5t-44.5 78zM848 601q-33 0 -65.5 -22.5
t-62 -58.5t-54.5 -81.5t-43.5 -91t-29 -88t-10.5 -71.5q0 -2 0.5 -4t0.5 -3q57 34 105 78.5t83.5 98.5t55.5 115t20 128zM708 721q-23 -2 -39.5 5.5t-31 19.5t-28 25.5t-30 23.5t-38 13.5t-50.5 -4.5q-2 0 -10 -2t-16.5 -4t-16 -4t-9.5 -2q-8 0 -11 7t-3 13q0 8 14 18t32 19
t35 15t23 6q31 0 52.5 -14.5t41 -31.5t42 -31.5t55.5 -14.5q42 0 62.5 11t30 24.5t12.5 25t11 11.5q11 0 23 -3t12 -18q-7 -29 -22.5 -47t-37.5 -30t-48.5 -18.5t-54.5 -12.5z" />
    <glyph glyph-name="itilde" unicode="&#x129;" horiz-adv-x="237" 
d="M5 65q0 14 3 24.5t11 27.5q7 10 25.5 38t39 59t39 58.5t25.5 38.5q9 13 14 14t19 1q9 0 19.5 -1t13.5 -14q-14 -34 -37.5 -64.5t-46 -60.5t-39.5 -61.5t-17 -67.5q4 0 12.5 -1t18.5 -2t18.5 -2t12.5 0q6 1 20.5 4.5t31 7.5t31.5 8t21 6q0 -2 0.5 -6.5t0.5 -6.5
q0 -20 -18.5 -33t-43 -20.5t-50 -10t-39.5 -2.5q-15 0 -30.5 3.5t-27.5 11.5t-19.5 20.5t-7.5 30.5zM179 487q-23 -2 -39.5 5.5t-31 19.5t-28 25.5t-30 23.5t-38 13.5t-50.5 -4.5q-2 0 -10 -2t-16.5 -4t-16 -4t-9.5 -2q-8 0 -11 7t-3 13q0 8 14 18t32 19t35 15t23 6
q31 0 52.5 -14.5t41 -31.5t42 -31.5t55.5 -14.5q42 0 62.5 11t30 24.5t12.5 25t11 11.5q11 0 23 -3t12 -18q-7 -29 -22.5 -47t-37.5 -30t-48.5 -18.5t-54.5 -12.5z" />
    <glyph glyph-name="Imacron" unicode="&#x12a;" horiz-adv-x="821" 
d="M13 233q-1 4 0 11.5t3 16t5 15.5t6 9q0 1 6.5 2.5t10.5 1.5q16 0 25 -9t17.5 -19.5t20 -19.5t32.5 -9q56 0 103.5 19t89 41.5t79 41.5t73.5 19q0 -14 -12.5 -30t-30 -31t-36 -27t-29.5 -18q-33 -20 -60 -33.5t-55 -23t-59 -14.5t-72 -7q4 -5 15 -16l23.5 -23.5
l23.5 -23.5t16 -15q9 -8 21 -11.5t24.5 -4t25 0.5t23.5 1q25 0 58.5 3.5t65.5 13t57.5 27.5t35.5 48q2 6 7.5 25t13.5 44t17 54t17 54t14.5 44t8.5 25q18 36 42.5 75.5t54.5 74t64 61t71 36.5q35 0 50.5 -24t15.5 -54q0 -75 -31 -146t-78.5 -135t-105 -118t-110.5 -94
q0 -3 -1.5 -8.5t-3.5 -11.5t-4 -11.5t-3 -7.5q-1 -1 -2 -1h-3q-2 0 -4.5 0.5t-3.5 0.5q-5 1 -19.5 6t-19.5 7q-9 -3 -31 -11t-47 -16t-47 -15t-31 -10q-2 -1 -10 -2.5t-18.5 -3.5t-20.5 -4l-15 -3h-7q-46 0 -87 22.5t-74.5 57t-60 75.5t-44.5 78zM848 601q-33 0 -65.5 -22.5
t-62 -58.5t-54.5 -81.5t-43.5 -91t-29 -88t-10.5 -71.5q0 -2 0.5 -4t0.5 -3q57 34 105 78.5t83.5 98.5t55.5 115t20 128zM517 811q27 3 63 4t74 2t74 1h65q17 0 31 -7.5t21 -30.5q-26 -5 -58.5 -8.5t-67 -6t-68.5 -3.5t-62.5 -0.5t-49 3t-28.5 6.5z" />
    <glyph glyph-name="imacron" unicode="&#x12b;" horiz-adv-x="237" 
d="M5 65q0 14 3 24.5t11 27.5q7 10 25.5 38t39 59t39 58.5t25.5 38.5q9 13 14 14t19 1q9 0 19.5 -1t13.5 -14q-14 -34 -37.5 -64.5t-46 -60.5t-39.5 -61.5t-17 -67.5q4 0 12.5 -1t18.5 -2t18.5 -2t12.5 0q6 1 20.5 4.5t31 7.5t31.5 8t21 6q0 -2 0.5 -6.5t0.5 -6.5
q0 -20 -18.5 -33t-43 -20.5t-50 -10t-39.5 -2.5q-15 0 -30.5 3.5t-27.5 11.5t-19.5 20.5t-7.5 30.5zM18 516q27 3 63 4t74 2t74 1h65q17 0 31 -7.5t21 -30.5q-26 -5 -58.5 -8.5t-67 -6t-68.5 -3.5t-62.5 -0.5t-49 3t-28.5 6.5z" />
    <glyph glyph-name="Ibreve" unicode="&#x12c;" horiz-adv-x="821" 
d="M13 233q-1 4 0 11.5t3 16t5 15.5t6 9q0 1 6.5 2.5t10.5 1.5q16 0 25 -9t17.5 -19.5t20 -19.5t32.5 -9q56 0 103.5 19t89 41.5t79 41.5t73.5 19q0 -14 -12.5 -30t-30 -31t-36 -27t-29.5 -18q-33 -20 -60 -33.5t-55 -23t-59 -14.5t-72 -7q4 -5 15 -16l23.5 -23.5
l23.5 -23.5t16 -15q9 -8 21 -11.5t24.5 -4t25 0.5t23.5 1q25 0 58.5 3.5t65.5 13t57.5 27.5t35.5 48q2 6 7.5 25t13.5 44t17 54t17 54t14.5 44t8.5 25q18 36 42.5 75.5t54.5 74t64 61t71 36.5q35 0 50.5 -24t15.5 -54q0 -75 -31 -146t-78.5 -135t-105 -118t-110.5 -94
q0 -3 -1.5 -8.5t-3.5 -11.5t-4 -11.5t-3 -7.5q-1 -1 -2 -1h-3q-2 0 -4.5 0.5t-3.5 0.5q-5 1 -19.5 6t-19.5 7q-9 -3 -31 -11t-47 -16t-47 -15t-31 -10q-2 -1 -10 -2.5t-18.5 -3.5t-20.5 -4l-15 -3h-7q-46 0 -87 22.5t-74.5 57t-60 75.5t-44.5 78zM848 601q-33 0 -65.5 -22.5
t-62 -58.5t-54.5 -81.5t-43.5 -91t-29 -88t-10.5 -71.5q0 -2 0.5 -4t0.5 -3q57 34 105 78.5t83.5 98.5t55.5 115t20 128zM700 930q15 -36 38 -55t49 -25.5t51 -2t44.5 16.5t29 29.5t4.5 36.5l48 -35q-11 -35 -34 -59t-51.5 -36.5t-60.5 -13t-61 12t-52 38.5t-35 67z" />
    <glyph glyph-name="Iogonek" unicode="&#x12e;" horiz-adv-x="821" 
d="M607 -121q-29 0 -66.5 5t-70.5 14.5t-55.5 24t-22.5 33.5q4 30 21 55q11 16 24 30q-4 -2 -9 -3q-25 -8 -47 -15t-31 -10q-2 -1 -10 -2.5t-18.5 -3.5t-20.5 -4l-15 -3h-7q-46 0 -87 22.5t-74.5 57t-60 75.5t-44.5 78q-1 4 0 11.5t3 16t5 15.5t6 9q0 1 6.5 2.5t10.5 1.5
q16 0 25 -9t17.5 -19.5t20 -19.5t32.5 -9q56 0 103.5 19t89 41.5t79 41.5t73.5 19q0 -14 -12.5 -30t-30 -31t-36 -27t-29.5 -18q-33 -20 -60 -33.5t-55 -23t-59 -14.5t-72 -7q4 -5 15 -16l47 -47q11 -11 16 -15q9 -8 21 -11.5t24.5 -4t25 0.5t23.5 1q25 0 58.5 3.5t65.5 13
t57.5 27.5t35.5 48q2 6 7.5 25t13.5 44t17 54t17 54t14.5 44t8.5 25q18 36 42.5 75.5t54.5 74t64 61t71 36.5q35 0 50.5 -24t15.5 -54q0 -75 -31 -146t-78.5 -135t-105 -118t-110.5 -94q0 -3 -1.5 -8.5t-3.5 -11.5t-4 -11.5t-3 -7.5q-1 -1 -2 -1h-3q-2 0 -4.5 0.5t-3.5 0.5
l-16 4q-3 -6 -7 -10q-11 -13 -20.5 -22.5t-17 -19.5t-10.5 -30q-9 -19 -0.5 -28t29.5 -13t51.5 -4.5t63.5 -2.5zM848 601q-33 0 -65.5 -22.5t-62 -58.5t-54.5 -81.5t-43.5 -91t-29 -88t-10.5 -71.5q0 -2 0.5 -4t0.5 -3q57 34 105 78.5t83.5 98.5t55.5 115t20 128z" />
    <glyph glyph-name="iogonek" unicode="&#x12f;" horiz-adv-x="237" 
d="M221 -173q-29 0 -66.5 5t-70.5 14.5t-55.5 24t-22.5 33.5q4 30 21 56q17 24 38 41q-3 1 -6 1q-15 4 -27 12t-19.5 20.5t-7.5 30.5q0 14 3 24.5t11 27.5q7 10 25.5 38t39 59t39 58.5t25.5 38.5q9 13 14 14t19 1q9 0 19.5 -1t13.5 -14q-14 -34 -37.5 -64.5t-46 -60.5
t-39.5 -61.5t-17 -67.5q4 0 12.5 -1t18.5 -2t18.5 -2t12.5 0q6 1 20.5 4.5t31 7.5t31.5 8t21 6q0 -2 0.5 -6.5t0.5 -6.5q0 -20 -18.5 -33t-43.5 -21q-18 -5 -37 -8q-3 -5 -6 -9q-11 -13 -20.5 -22.5t-17 -19.5t-10.5 -30q-9 -19 -0.5 -28t29.5 -13t51.5 -4.5t63.5 -2.5z
M296 651q13 0 24 -1t19 -5t13 -12t5 -22v-13q0 -7 -1.5 -13.5t-5.5 -11t-13 -4.5q-14 0 -22.5 10t-12.5 23.5t-5 27.5t-1 21z" />
    <glyph glyph-name="Idotaccent" unicode="&#x130;" horiz-adv-x="821" 
d="M13 233q-1 4 0 11.5t3 16t5 15.5t6 9q0 1 6.5 2.5t10.5 1.5q16 0 25 -9t17.5 -19.5t20 -19.5t32.5 -9q56 0 103.5 19t89 41.5t79 41.5t73.5 19q0 -14 -12.5 -30t-30 -31t-36 -27t-29.5 -18q-33 -20 -60 -33.5t-55 -23t-59 -14.5t-72 -7q4 -5 15 -16l23.5 -23.5
l23.5 -23.5t16 -15q9 -8 21 -11.5t24.5 -4t25 0.5t23.5 1q25 0 58.5 3.5t65.5 13t57.5 27.5t35.5 48q2 6 7.5 25t13.5 44t17 54t17 54t14.5 44t8.5 25q18 36 42.5 75.5t54.5 74t64 61t71 36.5q35 0 50.5 -24t15.5 -54q0 -75 -31 -146t-78.5 -135t-105 -118t-110.5 -94
q0 -3 -1.5 -8.5t-3.5 -11.5t-4 -11.5t-3 -7.5q-1 -1 -2 -1h-3q-2 0 -4.5 0.5t-3.5 0.5q-5 1 -19.5 6t-19.5 7q-9 -3 -31 -11t-47 -16t-47 -15t-31 -10q-2 -1 -10 -2.5t-18.5 -3.5t-20.5 -4l-15 -3h-7q-46 0 -87 22.5t-74.5 57t-60 75.5t-44.5 78zM848 601q-33 0 -65.5 -22.5
t-62 -58.5t-54.5 -81.5t-43.5 -91t-29 -88t-10.5 -71.5q0 -2 0.5 -4t0.5 -3q57 34 105 78.5t83.5 98.5t55.5 115t20 128zM792 800q1 13 11.5 21.5t24 9t26.5 -10.5t20 -37q0 -22 -12 -35t-34 -13q-3 0 -9 -1.5t-12 3t-10.5 18.5t-4.5 45z" />
    <glyph glyph-name="Jcircumflex" unicode="&#x134;" horiz-adv-x="641" 
d="M-30 -322q-7 2 -13 6.5t-8.5 10.5t-1 12t10.5 10q44 15 84 32t74.5 40.5t63 56.5t49.5 79l364 777h-13q-2 0 -22 -9t-46.5 -21t-54.5 -25t-45 -22q-24 -12 -55.5 -33.5t-65 -49.5t-65.5 -60.5t-57.5 -66t-41 -66.5t-15.5 -61q0 -11 4.5 -19t10.5 -15.5t10.5 -16
t4.5 -18.5q-21 0 -36 7.5t-24.5 20t-14 28.5t-4.5 33q0 26 9 49.5t23.5 45t32.5 41t37 38.5q16 16 43 41.5t54 50.5t48 43.5t24 20.5l311 168q22 13 38.5 37t33 47.5t37.5 41t53 17.5q9 0 16 -3.5t16 -9.5q1 -4 1.5 -16.5t0.5 -16.5v-20.5t-2.5 -13t-8 -10.5t-17.5 -14
q-9 -7 -31.5 -24t-48.5 -39.5t-49.5 -47t-32.5 -45.5l-227 -453q-1 -5 -5.5 -19.5t-6.5 -19.5q-8 -16 -20.5 -42.5t-27 -57t-30 -63t-29 -60.5t-23.5 -48.5t-14 -26.5q-17 -33 -48.5 -74t-71.5 -76t-86 -56t-92 -15zM498 1044q0 8 9.5 25.5t24.5 39t33.5 44t36 40.5t32.5 30
t23 12q16 0 33.5 -10t35 -26.5t33.5 -36t28 -39t19.5 -36t7.5 -25.5q-1 -21 -11.5 -19t-25.5 17t-32 37.5t-32 43t-26 32.5t-13 6q-7 0 -9.5 -2t-7.5 -7q-21 -9 -38.5 -26t-31.5 -36t-26 -37t-22.5 -29t-20.5 -12t-20 14z" />
    <glyph glyph-name="jcircumflex" unicode="&#x135;" horiz-adv-x="269" 
d="M-357 -455q0 42 14 80t36 72t50 64.5t56 57.5q10 10 32 29.5t50 44t59 51t59.5 50.5t51 43t33.5 28q3 10 11 30t18.5 46t21.5 54t21.5 53.5t19 45.5t12.5 30q5 12 12.5 25.5t17 25.5t22 20t27.5 8q0 -32 -10.5 -71t-25.5 -77t-30.5 -71t-25.5 -54q2 0 6.5 -0.5t6.5 -0.5
q26 0 49.5 7t49.5 7q8 0 17.5 -1t12.5 -12q-11 -22 -34 -31t-49.5 -15t-50 -15t-33.5 -30q-6 -12 -18.5 -37.5t-28 -57t-33 -67t-32.5 -67.5t-27 -58t-17 -38q-17 -36 -36.5 -85t-47 -93.5t-65.5 -75.5t-91 -31q-25 0 -45.5 9.5t-35 25.5t-22.5 37t-8 44zM-306 -439
q0 -15 1.5 -29t7 -25.5t16 -18.5t29.5 -7q37 0 70 26.5t59.5 63t46.5 76.5t31 67q7 17 16 40.5t19 49.5t20 51.5t17.5 45.5t12.5 33t5 14v26q-2 -2 -8 -5.5t-12 -7.5t-11.5 -7.5t-7.5 -5.5q-8 -7 -25.5 -23.5t-39 -36.5t-45.5 -42.5t-45.5 -43t-39 -37t-25.5 -24.5
q-14 -23 -30 -43t-29.5 -41t-23 -44t-9.5 -52zM72 562q0 8 9.5 25.5t24.5 39t33.5 44t36 40.5t32.5 30t23 12q16 0 33.5 -10t35 -26.5t33.5 -36t28 -39t19.5 -36t7.5 -25.5q-1 -21 -11.5 -19t-25.5 17t-32 37.5t-32 43t-26 32.5t-13 6q-7 0 -9.5 -2t-7.5 -7
q-21 -9 -38.5 -26t-31.5 -36t-26 -37t-22.5 -29t-20.5 -12t-20 14z" />
    <glyph glyph-name="Kcommaaccent" unicode="&#x136;" horiz-adv-x="490" 
d="M310 -246q0 78 2.5 148t11.5 150q-3 30 -7 65.5t-12.5 70t-23 63.5t-37.5 45q-46 -55 -75.5 -100.5t-48 -80t-29.5 -57t-20 -31.5t-19 -3t-26 28q18 29 46 75.5t61.5 103.5t70.5 120.5t73.5 125t69.5 117.5t59 98q9 4 14.5 4t8 -2t3 -4.5t0.5 -3.5q0 -27 -13.5 -65
t-33 -77.5t-40 -74t-35.5 -53.5q30 7 64.5 26t69 43t68 51t63 49t53.5 36.5t40 14.5q5 0 10 -5t9 -12.5t6.5 -15t2.5 -11.5q-17 0 -46 -17.5t-76 -50.5t-114.5 -79.5t-160.5 -103.5q11 -15 24.5 -36t25 -44t19.5 -47t8 -45q5 -102 -3 -203t-11 -198q41 -9 57.5 -19.5
t15.5 -19t-15.5 -13.5t-34 -3.5t-40.5 11t-35 30.5zM205 -155q0 15 -3 23.5t-6.5 15.5t-6.5 15t-3 22q19 0 39 -6t31 -23q0 -3 0.5 -10.5t1 -15.5t1 -15.5t0.5 -10.5q0 -37 -18.5 -76t-49 -71.5t-69 -53t-78.5 -20.5q0 15 12 28.5t30 28.5t38.5 31.5t38.5 36.5t30 45t12 56z
" />
    <glyph glyph-name="kcommaaccent" unicode="&#x137;" horiz-adv-x="479" 
d="M150 142q-12 -16 -20 -36t-18 -38t-24 -30t-37 -12q-19 0 -26 6.5t-7 26.5q0 24 13.5 53t32.5 56.5t39 51.5t33 39l185 400q7 17 25.5 32t38.5 15v-33l-106 -245v-24q17 0 32 5.5t30 12.5t31.5 12.5t36.5 5.5q18 -12 19 -29.5t-9 -38t-27.5 -41.5t-36.5 -40.5
t-36.5 -34.5t-26.5 -23q-15 -12 -27.5 -16.5t-21.5 -8.5t-13.5 -12t-4.5 -27q0 -28 15 -45.5t39.5 -27.5t55 -13.5t61.5 -3.5t59 2.5t48 5.5l12 -12q-11 -15 -33.5 -28.5t-49 -24t-52.5 -17t-43 -6.5q-32 0 -62 10.5t-55 29.5t-43.5 45.5t-26.5 57.5zM347 367q-9 0 -27 -7
t-36 -18t-31 -24t-13 -26v-7q7 3 24.5 10t36 17.5t32.5 24.5t14 30zM294 -160q0 15 -3 23.5t-6.5 15.5t-6.5 15t-3 22q19 0 39 -6t31 -23q0 -3 0.5 -10.5t1 -15.5t1 -15.5t0.5 -10.5q0 -37 -18.5 -76t-49 -71.5t-69 -53t-78.5 -20.5q0 15 12 28.5t30 28.5t38.5 31.5
t38.5 36.5t30 45t12 56z" />
    <glyph glyph-name="Lacute" unicode="&#x139;" horiz-adv-x="689" 
d="M424 205q-14 0 -28 -15.5t-30.5 -38.5t-36.5 -50.5t-45.5 -50.5t-57.5 -38.5t-73 -15.5q-19 0 -43.5 1.5t-46 8t-36 21t-14.5 40.5q0 35 21.5 63.5t56 51.5t77 40t84.5 29t79 19.5t60 11.5l195 311q13 21 35 44t48 42.5t54.5 32.5t54.5 13q5 0 18.5 -2t27 -14t24 -39
t10.5 -77q-7 -2 -13 -6.5t-13.5 -9t-17 -8t-21.5 -3.5q16 33 11.5 52.5t-20.5 26.5t-40 3t-48 -16.5t-43.5 -32.5t-27.5 -45l-169 -286v-13q41 -29 62.5 -63t33 -68.5t17.5 -67.5t15.5 -59.5t27 -44t52.5 -21.5q0 -1 0.5 -3t0.5 -3q0 -12 -9.5 -18.5t-22.5 -10t-26.5 -4.5
t-21.5 -1q-21 18 -34.5 48t-23.5 64.5t-18.5 70t-19.5 64t-26 47.5t-39 20zM67 81q0 -12 8.5 -19t20.5 -10t24.5 -4t19.5 -1q27 0 60 14.5t61.5 37.5t48 51.5t19.5 57.5q-78 0 -145.5 -27.5t-115.5 -93.5q0 -1 -0.5 -3t-0.5 -3zM719 1020q17 -1 15 -16.5t-14.5 -37
t-31.5 -45.5t-38 -41.5t-33.5 -24.5t-16.5 5q4 10 18 34t32 49.5t36.5 47.5t32.5 29z" />
    <glyph glyph-name="lacute" unicode="&#x13a;" horiz-adv-x="255" 
d="M6 91q0 7 1.5 21.5t3.5 28.5t4 25.5t4 14.5l182 364q4 8 15.5 22.5t25 30t27 29t22.5 21.5q7 -2 10 -7t4 -11.5t0.5 -12.5t-0.5 -10v-14t-1 -9q-10 -27 -31 -64t-47 -79t-53.5 -87.5t-50 -90t-37 -85.5t-14.5 -75q0 -18 10.5 -28.5t22.5 -18.5t22.5 -16t10.5 -22
q0 -9 -8 -13.5t-19 -4.5q-42 0 -73 23.5t-31 67.5zM300 932q17 -1 15 -16.5t-14.5 -37t-31.5 -45.5t-38 -41.5t-33.5 -24.5t-16.5 5q4 10 18 34t32 49.5t36.5 47.5t32.5 29z" />
    <glyph glyph-name="Lcommaaccent" unicode="&#x13b;" horiz-adv-x="689" 
d="M424 205q-14 0 -28 -15.5t-30.5 -38.5t-36.5 -50.5t-45.5 -50.5t-57.5 -38.5t-73 -15.5q-19 0 -43.5 1.5t-46 8t-36 21t-14.5 40.5q0 35 21.5 63.5t56 51.5t77 40t84.5 29t79 19.5t60 11.5l195 311q13 21 35 44t48 42.5t54.5 32.5t54.5 13q5 0 18.5 -2t27 -14t24 -39
t10.5 -77q-7 -2 -13 -6.5t-13.5 -9t-17 -8t-21.5 -3.5q16 33 11.5 52.5t-20.5 26.5t-40 3t-48 -16.5t-43.5 -32.5t-27.5 -45l-169 -286v-13q41 -29 62.5 -63t33 -68.5t17.5 -67.5t15.5 -59.5t27 -44t52.5 -21.5q0 -1 0.5 -3t0.5 -3q0 -12 -9.5 -18.5t-22.5 -10t-26.5 -4.5
t-21.5 -1q-21 18 -34.5 48t-23.5 64.5t-18.5 70t-19.5 64t-26 47.5t-39 20zM67 81q0 -12 8.5 -19t20.5 -10t24.5 -4t19.5 -1q27 0 60 14.5t61.5 37.5t48 51.5t19.5 57.5q-78 0 -145.5 -27.5t-115.5 -93.5q0 -1 -0.5 -3t-0.5 -3zM397 -160q0 15 -3 23.5t-6.5 15.5t-6.5 15
t-3 22q19 0 39 -6t31 -23q0 -3 0.5 -10.5t1 -15.5t1 -15.5t0.5 -10.5q0 -37 -18.5 -76t-49 -71.5t-69 -53t-78.5 -20.5q0 15 12 28.5t30 28.5t38.5 31.5t38.5 36.5t30 45t12 56z" />
    <glyph glyph-name="lcommaaccent" unicode="&#x13c;" horiz-adv-x="255" 
d="M6 91q0 7 1.5 21.5t3.5 28.5t4 25.5t4 14.5l182 364q4 8 15.5 22.5t25 30t27 29t22.5 21.5q7 -2 10 -7t4 -11.5t0.5 -12.5t-0.5 -10v-14t-1 -9q-10 -27 -31 -64t-47 -79t-53.5 -87.5t-50 -90t-37 -85.5t-14.5 -75q0 -18 10.5 -28.5t22.5 -18.5t22.5 -16t10.5 -22
q0 -9 -8 -13.5t-19 -4.5q-42 0 -73 23.5t-31 67.5zM115 -214q0 15 -3 23.5t-6.5 15.5t-6.5 15t-3 22q19 0 39 -6t31 -23q0 -3 0.5 -10.5t1 -15.5t1 -15.5t0.5 -10.5q0 -37 -18.5 -76t-49 -71.5t-69 -53t-78.5 -20.5q0 15 12 28.5t30 28.5t38.5 31.5t38.5 36.5t30 45t12 56z
" />
    <glyph glyph-name="Lcaron" unicode="&#x13d;" horiz-adv-x="689" 
d="M424 205q-14 0 -28 -15.5t-30.5 -38.5t-36.5 -50.5t-45.5 -50.5t-57.5 -38.5t-73 -15.5q-19 0 -43.5 1.5t-46 8t-36 21t-14.5 40.5q0 35 21.5 63.5t56 51.5t77 40t84.5 29t79 19.5t60 11.5l195 311q13 21 35 44t48 42.5t54.5 32.5t54.5 13q5 0 18.5 -2t27 -14t24 -39
t10.5 -77q-7 -2 -13 -6.5t-13.5 -9t-17 -8t-21.5 -3.5q16 33 11.5 52.5t-20.5 26.5t-40 3t-48 -16.5t-43.5 -32.5t-27.5 -45l-169 -286v-13q41 -29 62.5 -63t33 -68.5t17.5 -67.5t15.5 -59.5t27 -44t52.5 -21.5q0 -1 0.5 -3t0.5 -3q0 -12 -9.5 -18.5t-22.5 -10t-26.5 -4.5
t-21.5 -1q-21 18 -34.5 48t-23.5 64.5t-18.5 70t-19.5 64t-26 47.5t-39 20zM67 81q0 -12 8.5 -19t20.5 -10t24.5 -4t19.5 -1q27 0 60 14.5t61.5 37.5t48 51.5t19.5 57.5q-78 0 -145.5 -27.5t-115.5 -93.5q0 -1 -0.5 -3t-0.5 -3zM632 1007q13 15 26 7t28.5 -25.5t35 -38
t47.5 -29.5q5 -3 7 -4.5t8 -1.5q2 -4 11.5 4t23 21.5t28 29t27.5 26t22 11.5t10 -13q0 -9 -13.5 -29t-34 -39.5t-44.5 -34.5t-45 -15q-11 0 -33.5 17t-45.5 39.5t-40.5 44t-17.5 30.5z" />
    <glyph glyph-name="Ldot" unicode="&#x13f;" horiz-adv-x="689" 
d="M424 205q-14 0 -28 -15.5t-30.5 -38.5t-36.5 -50.5t-45.5 -50.5t-57.5 -38.5t-73 -15.5q-19 0 -43.5 1.5t-46 8t-36 21t-14.5 40.5q0 35 21.5 63.5t56 51.5t77 40t84.5 29t79 19.5t60 11.5l195 311q13 21 35 44t48 42.5t54.5 32.5t54.5 13q5 0 18.5 -2t27 -14t24 -39
t10.5 -77q-7 -2 -13 -6.5t-13.5 -9t-17 -8t-21.5 -3.5q16 33 11.5 52.5t-20.5 26.5t-40 3t-48 -16.5t-43.5 -32.5t-27.5 -45l-169 -286v-13q41 -29 62.5 -63t33 -68.5t17.5 -67.5t15.5 -59.5t27 -44t52.5 -21.5q0 -1 0.5 -3t0.5 -3q0 -12 -9.5 -18.5t-22.5 -10t-26.5 -4.5
t-21.5 -1q-21 18 -34.5 48t-23.5 64.5t-18.5 70t-19.5 64t-26 47.5t-39 20zM67 81q0 -12 8.5 -19t20.5 -10t24.5 -4t19.5 -1q27 0 60 14.5t61.5 37.5t48 51.5t19.5 57.5q-78 0 -145.5 -27.5t-115.5 -93.5q0 -1 -0.5 -3t-0.5 -3zM601 298q1 13 11.5 21.5t24 8.5t26.5 -10.5
t20 -37.5q0 -21 -12 -34.5t-34 -13.5q-3 0 -9 -1.5t-12 3t-10.5 19t-4.5 45.5z" />
    <glyph glyph-name="ldot" unicode="&#x140;" horiz-adv-x="345" 
d="M6 91q0 7 1.5 21.5t3.5 28.5t4 25.5t4 14.5l182 364q4 8 15.5 22.5t25 30t27 29t22.5 21.5q7 -2 10 -7t4 -11.5t0.5 -12.5t-0.5 -10v-14t-1 -9q-10 -27 -31 -64t-47 -79t-53.5 -87.5t-50 -90t-37 -85.5t-14.5 -75q0 -18 10.5 -28.5t22.5 -18.5t22.5 -16t10.5 -22
q0 -9 -8 -13.5t-19 -4.5q-42 0 -73 23.5t-31 67.5zM217 279q1 13 11.5 21.5t24 8.5t26.5 -10.5t20 -37.5q0 -21 -12 -34.5t-34 -13.5q-3 0 -9 -1.5t-12 3t-10.5 19t-4.5 45.5z" />
    <glyph glyph-name="Lslash" unicode="&#x141;" horiz-adv-x="689" 
d="M332 395q27 3 58.5 7.5t64.5 8.5q17 3 35 5l109 174q13 21 35 44t48 42.5t54.5 32.5t54.5 13q5 0 18.5 -2t27 -14t24 -39t10.5 -77q-7 -2 -13 -6.5t-13.5 -9t-17 -8t-21.5 -3.5q16 33 11.5 52.5t-20.5 26.5t-40 3t-48 -16.5t-43.5 -32.5t-27.5 -45l-76 -129h20
q8 0 17 0.5t17.5 -2t15.5 -8t10 -17.5q-6 -11 -24 -19.5t-43 -14.5t-53 -10h-2l-51 -86v-13q41 -29 62.5 -63t33 -68.5t17.5 -67.5t15.5 -59.5t27 -44t52.5 -21.5q0 -1 0.5 -3t0.5 -3q0 -12 -9.5 -18.5t-22.5 -10t-26.5 -4.5t-21.5 -1q-21 18 -34.5 48t-23.5 64.5t-18.5 70
t-19.5 64t-26 47.5t-39 20q-14 0 -28 -15.5t-30.5 -38.5t-36.5 -50.5t-45.5 -50.5t-57.5 -38.5t-73 -15.5q-19 0 -43.5 1.5t-46 8t-36 21t-14.5 40.5q0 35 21.5 63.5t56 51.5t77 40t84.5 29t79 19.5t60 11.5l40 64q-9 -1 -16 -1h-20q-9 0 -22 1.5t-25 5t-20.5 8.5t-8.5 11
v27zM80 78q0 -12 8.5 -19t20.5 -10t24.5 -4t19.5 -1q27 0 60 14.5t61.5 37.5t48 51.5t19.5 57.5q-78 0 -145.5 -27.5t-115.5 -93.5q0 -1 -0.5 -3t-0.5 -3z" />
    <glyph glyph-name="lslash" unicode="&#x142;" horiz-adv-x="255" 
d="M-26 260q27 3 58 7q16 2 32 5l137 273q4 8 15.5 22.5t25 30t27 29t22.5 21.5q7 -2 10 -7t4 -11.5t0.5 -12.5t-0.5 -10v-14q0 -9 -1 -9q-10 -27 -31 -64t-47 -79t-54 -88q-22 -36 -41 -72q16 1 31 3q33 3 62 3q8 0 17 0.5t17.5 -2t15.5 -8t10 -17.5q-6 -11 -24 -19.5
t-43 -14.5t-53 -10l-52 -6q-8 -1 -15 -2l-12 -30q-14 -41 -14 -75q0 -18 10.5 -28.5t22.5 -18.5t22.5 -16t10.5 -22q0 -9 -8 -13.5t-19 -4.5q-42 0 -73 23.5t-31 67.5q0 7 1.5 21.5t3.5 28.5t4 25.5t4 14.5l13 27h-4q-13 2 -25 5.5t-20.5 8.5t-8.5 11v27z" />
    <glyph glyph-name="Nacute" unicode="&#x143;" horiz-adv-x="891" 
d="M602 56q0 55 4 110.5t9.5 110.5t9.5 110.5t4 111.5v71q-2 -2 -6 -7.5t-8.5 -11.5t-8 -11.5t-4.5 -8.5q-4 -7 -15.5 -28.5t-27.5 -51t-34 -62.5t-34 -62.5t-28.5 -51t-16.5 -28.5q-20 -34 -43 -75t-51.5 -77t-64.5 -60t-82 -24q-47 0 -83.5 20.5t-62.5 54t-39.5 75.5
t-13.5 86q0 5 5 19.5t8 18.5q16 -13 28 -32.5t22.5 -41.5t21 -43.5t24 -39t31.5 -28.5t44 -11q34 0 59.5 12.5t46.5 33t41 46t45 52.5q8 14 24.5 42t37.5 64t43.5 75.5t42.5 75t36 64t24 42.5q2 4 9.5 21t16 37t16 37t9.5 22q6 13 19 13q18 0 25.5 -19t9.5 -43t0.5 -45
t-1.5 -25q0 -71 -7 -141t-7 -142v-85q7 16 22 52t34 82t40 97.5t40.5 97.5t34.5 81.5t23 50.5q15 29 37 65.5t49.5 68.5t61.5 53.5t73 21.5q-57 -38 -106 -106.5t-90 -153t-75.5 -176.5t-63 -176t-52 -152.5t-43 -104.5t-35 -33t-28.5 62zM890 1090q17 -1 15 -16.5
t-14.5 -37t-31.5 -45.5t-38 -41.5t-33.5 -24.5t-16.5 5q4 10 18 34t32 49.5t36.5 47.5t32.5 29z" />
    <glyph glyph-name="nacute" unicode="&#x144;" horiz-adv-x="445" 
d="M25 45v14t1.5 9.5t4.5 9.5t8 13q8 14 30 49t47 74t47.5 74l31.5 49q1 1 5.5 1h6.5h7t6 -1t4.5 -5t8 -8.5t8 -8.5t5.5 -4q9 0 19 6t20.5 13.5t21.5 13.5t23 6q13 0 24 -6t19 -15t12.5 -20t4.5 -22q0 -23 -6.5 -44t-14.5 -41.5t-14.5 -41t-6.5 -42.5t5 -31.5t28 -9.5
q27 0 51.5 8t50.5 8q0 -24 -14.5 -40t-36 -25.5t-46 -13t-44.5 -3.5q-38 0 -55.5 21.5t-17.5 57.5q0 24 8.5 45t19 41t19.5 40t9 43q0 6 -2 16t-13 10q-33 0 -59.5 -21t-48 -53t-39 -69t-33 -69t-29.5 -53t-29 -21q-21 0 -34 13t-13 33zM351 659q17 -1 15 -16.5t-14.5 -37
t-31.5 -45.5t-38 -41.5t-33.5 -24.5t-16.5 5q4 10 18 34t32 49.5t36.5 47.5t32.5 29z" />
    <glyph glyph-name="Ncommaaccent" unicode="&#x145;" horiz-adv-x="891" 
d="M602 56q0 55 4 110.5t9.5 110.5t9.5 110.5t4 111.5v71q-2 -2 -6 -7.5t-8.5 -11.5t-8 -11.5t-4.5 -8.5q-4 -7 -15.5 -28.5t-27.5 -51t-34 -62.5t-34 -62.5t-28.5 -51t-16.5 -28.5q-20 -34 -43 -75t-51.5 -77t-64.5 -60t-82 -24q-47 0 -83.5 20.5t-62.5 54t-39.5 75.5
t-13.5 86q0 5 5 19.5t8 18.5q16 -13 28 -32.5t22.5 -41.5t21 -43.5t24 -39t31.5 -28.5t44 -11q34 0 59.5 12.5t46.5 33t41 46t45 52.5q8 14 24.5 42t37.5 64t43.5 75.5t42.5 75t36 64t24 42.5q2 4 9.5 21t16 37t16 37t9.5 22q6 13 19 13q18 0 25.5 -19t9.5 -43t0.5 -45
t-1.5 -25q0 -71 -7 -141t-7 -142v-85q7 16 22 52t34 82t40 97.5t40.5 97.5t34.5 81.5t23 50.5q15 29 37 65.5t49.5 68.5t61.5 53.5t73 21.5q-57 -38 -106 -106.5t-90 -153t-75.5 -176.5t-63 -176t-52 -152.5t-43 -104.5t-35 -33t-28.5 62zM499 -160q0 15 -3 23.5t-6.5 15.5
t-6.5 15t-3 22q19 0 39 -6t31 -23q0 -3 0.5 -10.5t1 -15.5t1 -15.5t0.5 -10.5q0 -37 -18.5 -76t-49 -71.5t-69 -53t-78.5 -20.5q0 15 12 28.5t30 28.5t38.5 31.5t38.5 36.5t30 45t12 56z" />
    <glyph glyph-name="ncommaaccent" unicode="&#x146;" horiz-adv-x="445" 
d="M25 45v14t1.5 9.5t4.5 9.5t8 13q8 14 30 49t47 74t47.5 74l31.5 49q1 1 5.5 1h6.5h7t6 -1t4.5 -5t8 -8.5t8 -8.5t5.5 -4q9 0 19 6t20.5 13.5t21.5 13.5t23 6q13 0 24 -6t19 -15t12.5 -20t4.5 -22q0 -23 -6.5 -44t-14.5 -41.5t-14.5 -41t-6.5 -42.5t5 -31.5t28 -9.5
q27 0 51.5 8t50.5 8q0 -24 -14.5 -40t-36 -25.5t-46 -13t-44.5 -3.5q-38 0 -55.5 21.5t-17.5 57.5q0 24 8.5 45t19 41t19.5 40t9 43q0 6 -2 16t-13 10q-33 0 -59.5 -21t-48 -53t-39 -69t-33 -69t-29.5 -53t-29 -21q-21 0 -34 13t-13 33zM279 -160q0 15 -3 23.5t-6.5 15.5
t-6.5 15t-3 22q19 0 39 -6t31 -23q0 -3 0.5 -10.5t1 -15.5t1 -15.5t0.5 -10.5q0 -37 -18.5 -76t-49 -71.5t-69 -53t-78.5 -20.5q0 15 12 28.5t30 28.5t38.5 31.5t38.5 36.5t30 45t12 56z" />
    <glyph glyph-name="Ncaron" unicode="&#x147;" horiz-adv-x="891" 
d="M602 56q0 55 4 110.5t9.5 110.5t9.5 110.5t4 111.5v71q-2 -2 -6 -7.5t-8.5 -11.5t-8 -11.5t-4.5 -8.5q-4 -7 -15.5 -28.5t-27.5 -51t-34 -62.5t-34 -62.5t-28.5 -51t-16.5 -28.5q-20 -34 -43 -75t-51.5 -77t-64.5 -60t-82 -24q-47 0 -83.5 20.5t-62.5 54t-39.5 75.5
t-13.5 86q0 5 5 19.5t8 18.5q16 -13 28 -32.5t22.5 -41.5t21 -43.5t24 -39t31.5 -28.5t44 -11q34 0 59.5 12.5t46.5 33t41 46t45 52.5q8 14 24.5 42t37.5 64t43.5 75.5t42.5 75t36 64t24 42.5q2 4 9.5 21t16 37t16 37t9.5 22q6 13 19 13q18 0 25.5 -19t9.5 -43t0.5 -45
t-1.5 -25q0 -71 -7 -141t-7 -142v-85q7 16 22 52t34 82t40 97.5t40.5 97.5t34.5 81.5t23 50.5q15 29 37 65.5t49.5 68.5t61.5 53.5t73 21.5q-57 -38 -106 -106.5t-90 -153t-75.5 -176.5t-63 -176t-52 -152.5t-43 -104.5t-35 -33t-28.5 62zM632 1007q13 15 26 7t28.5 -25.5
t35 -38t47.5 -29.5q5 -3 7 -4.5t8 -1.5q2 -4 11.5 4t23 21.5t28 29t27.5 26t22 11.5t10 -13q0 -9 -13.5 -29t-34 -39.5t-44.5 -34.5t-45 -15q-11 0 -33.5 17t-45.5 39.5t-40.5 44t-17.5 30.5z" />
    <glyph glyph-name="ncaron" unicode="&#x148;" horiz-adv-x="445" 
d="M25 45v14t1.5 9.5t4.5 9.5t8 13q8 14 30 49t47 74t47.5 74l31.5 49q1 1 5.5 1h6.5h7t6 -1t4.5 -5t8 -8.5t8 -8.5t5.5 -4q9 0 19 6t20.5 13.5t21.5 13.5t23 6q13 0 24 -6t19 -15t12.5 -20t4.5 -22q0 -23 -6.5 -44t-14.5 -41.5t-14.5 -41t-6.5 -42.5t5 -31.5t28 -9.5
q27 0 51.5 8t50.5 8q0 -24 -14.5 -40t-36 -25.5t-46 -13t-44.5 -3.5q-38 0 -55.5 21.5t-17.5 57.5q0 24 8.5 45t19 41t19.5 40t9 43q0 6 -2 16t-13 10q-33 0 -59.5 -21t-48 -53t-39 -69t-33 -69t-29.5 -53t-29 -21q-21 0 -34 13t-13 33zM128 546q13 15 26 7t28.5 -25.5
t35 -38t47.5 -29.5q5 -3 7 -4.5t8 -1.5q2 -4 11.5 4t23 21.5t28 29t27.5 26t22 11.5t10 -13q0 -9 -13.5 -29t-34 -39.5t-44.5 -34.5t-45 -15q-11 0 -33.5 17t-45.5 39.5t-40.5 44t-17.5 30.5z" />
    <glyph glyph-name="napostrophe" unicode="&#x149;" horiz-adv-x="445" 
d="M25 45v14t1.5 9.5t4.5 9.5t8 13q8 14 30 49t47 74t47.5 74l31.5 49q1 1 5.5 1h6.5h7t6 -1t4.5 -5t8 -8.5t8 -8.5t5.5 -4q9 0 19 6t20.5 13.5t21.5 13.5t23 6q13 0 24 -6t19 -15t12.5 -20t4.5 -22q0 -23 -6.5 -44t-14.5 -41.5t-14.5 -41t-6.5 -42.5t5 -31.5t28 -9.5
q27 0 51.5 8t50.5 8q0 -24 -14.5 -40t-36 -25.5t-46 -13t-44.5 -3.5q-38 0 -55.5 21.5t-17.5 57.5q0 24 8.5 45t19 41t19.5 40t9 43q0 6 -2 16t-13 10q-33 0 -59.5 -21t-48 -53t-39 -69t-33 -69t-29.5 -53t-29 -21q-21 0 -34 13t-13 33zM215.396 279.709
q0 8.74609 -2.44336 13.7021q-2.44238 4.95605 -5.29199 9.03711q-2.85059 4.08203 -5.29297 8.74609q-2.44336 4.66504 -2.44336 12.8281q15.4717 0 31.7568 -3.49902q16.2852 -3.49805 25.2422 -13.4102q0 -1.74902 0.407227 -6.12207t0.814453 -9.03809
q0.407227 -4.66406 0.814453 -9.03711t0.407227 -6.12207q0 -21.5742 -15.0645 -44.3135q-15.0635 -22.7402 -39.8994 -41.6895q-24.835 -18.9502 -56.1846 -30.9023q-31.3486 -11.9531 -63.9199 -11.9531q0 8.74609 9.77148 16.6172t24.4277 16.6172
q14.6572 8.74609 31.3496 18.3672q16.6924 9.62012 31.3496 21.2822q14.6562 11.6611 24.4277 26.2373q9.77148 14.5771 9.77148 32.6523z" />
    <glyph glyph-name="Omacron" unicode="&#x14c;" horiz-adv-x="505" 
d="M84 -1q-27 1 -42.5 13.5t-21.5 31t-5.5 41.5t4.5 45q52 158 100 267.5t91 179t81 105t70.5 46.5t59 2.5t47.5 -26.5t35.5 -40.5t22.5 -39.5q-4 -100 -38 -198t-92.5 -182t-138 -148t-173.5 -97zM343 635q-22 -5 -49.5 -41t-56 -90t-56.5 -119.5t-51 -127.5t-40 -115
t-23 -82q37 0 81.5 22t84.5 54.5t70 69.5t40 66v3q0 2 0.5 2.5t0.5 1.5t-0.5 2t-0.5 2v2q-22 39 -33.5 84t-11.5 91t11 91t34 84zM460 663q-54 -16 -80.5 -55.5t-33.5 -89t2 -102t27 -93.5q107 117 112 280q0 9 0.5 19t-1 18.5t-7.5 15t-19 7.5zM251 889q27 3 63 4t74 2
t74 1h65q17 0 31 -7.5t21 -30.5q-26 -5 -58.5 -8.5t-67 -6t-68.5 -3.5t-62.5 -0.5t-49 3t-28.5 6.5z" />
    </font>
</defs>
</svg>
