<?xml version="1.0" standalone="no"?>
<!DOCTYPE svg PUBLIC "-//W3C//DTD SVG 1.1//EN" "http://www.w3.org/Graphics/SVG/1.1/DTD/svg11.dtd" >
<svg xmlns="http://www.w3.org/2000/svg" xmlns:xlink="http://www.w3.org/1999/xlink" version="1.1">
<metadata>
Created by FontForge 20170731 at Thu Mar  2 01:47:03 2000
 By Aleksey,,,
Copyright (c) ShyFonts Type Foundry, 1999. All rights reserved.
</metadata>
<defs>
<font id="SFArborcrestLight" horiz-adv-x="286" >
  <font-face 
    font-family="SF Arborcrest Light"
    font-weight="400"
    font-stretch="normal"
    units-per-em="2048"
    panose-1="0 0 4 0 0 0 0 0 0 0"
    ascent="1638"
    descent="-410"
    x-height="1024"
    cap-height="1366"
    bbox="0 -339 1845 1757"
    underline-thickness="17"
    underline-position="-135"
    unicode-range="U+0020-00FF"
  />
<missing-glyph horiz-adv-x="1024" 
 />
    <glyph glyph-name=".notdef" horiz-adv-x="1024" 
 />
    <glyph glyph-name=".null" horiz-adv-x="0" 
 />
    <glyph glyph-name="nonmarkingreturn" horiz-adv-x="682" 
 />
    <glyph glyph-name="space" unicode=" " horiz-adv-x="746" 
 />
    <glyph glyph-name="exclam" unicode="!" horiz-adv-x="236" 
d="M54 0v125h120v-125h-120zM156 354h-84l-18 1012h120z" />
    <glyph glyph-name="quotedbl" unicode="&#x22;" horiz-adv-x="514" 
d="M156 1024h-56l-28 342h112zM412 1024h-56l-28 342h112z" />
    <glyph glyph-name="numbersign" unicode="#" horiz-adv-x="940" 
d="M361 1040l-21 -254h240l20 254h-239zM686 661l-14 -201h-119l15 201h-240l-15 -201h-118l14 201h-166v125h178l21 254h-199v125h211l14 201h121l-16 -201h239l14 201h122l-17 -201h166v-125h-178l-21 -254h199v-125h-211z" />
    <glyph glyph-name="dollar" unicode="$" horiz-adv-x="1108" 
d="M954 375q0 220 -340 245v-491q340 24 340 246zM493 1235q-340 -19 -340 -246q0 -219 340 -243v489zM1075 375q0 -330 -461 -369v-173h-121v173q-362 34 -439 246l118 30q60 -135 321 -153v493q-460 39 -460 367q0 332 460 369v178h121v-178q363 -31 441 -244l-119 -32
q-58 139 -322 153v-491q461 -41 461 -369z" />
    <glyph glyph-name="percent" unicode="%" horiz-adv-x="1282" 
d="M1110 369q0 217 -146 217q-100 0 -131 -93q-14 -47 -14 -174q0 -213 145 -213q102 0 130 91q16 49 16 172zM460 1043q0 217 -145 217q-102 0 -129 -93q-16 -47 -16 -174q0 -213 145 -213q100 0 129 90q16 47 16 173zM1213 346q0 -346 -249 -346q-247 0 -247 346t247 346
q249 0 249 -346zM250 0h-158l936 1366h160zM563 1020q0 -346 -248 -346q-247 0 -247 346t247 346q248 0 248 -346z" />
    <glyph glyph-name="ampersand" unicode="&#x26;" horiz-adv-x="1173" 
d="M918 620h-402q-156 0 -232 -42q-100 -58 -100 -205q0 -156 115 -211q74 -37 250 -37q170 0 251 35q118 55 118 213v247zM1036 620v-247q0 -373 -450 -373h-70q-452 0 -452 373q0 128 71 207q63 64 197 104q-117 45 -174 114q-60 76 -60 195q0 373 453 373h86
q317 0 412 -186l-123 -38q-52 72 -158 91q-28 4 -75 7t-113 3q-172 0 -250 -39q-113 -57 -113 -211q0 -249 299 -249h606v-124h-86z" />
    <glyph glyph-name="quotesingle" unicode="'" horiz-adv-x="221" 
d="M135 1024h-55l-29 342h113z" />
    <glyph glyph-name="parenleft" unicode="(" horiz-adv-x="363" 
d="M203 -167q-96 228 -127 413q-35 196 -35 436q0 242 35 438q36 184 127 416h116q-45 -112 -75 -215.5t-47 -200.5t-26 -204t-9 -234q0 -125 8 -231.5t25 -202.5q19 -99 49 -201t75 -214h-116z" />
    <glyph glyph-name="parenright" unicode=")" horiz-adv-x="365" 
d="M321 682q0 -252 -37 -436q-16 -97 -47.5 -198t-76.5 -215h-117q45 112 75.5 215t49.5 200q35 196 35 434q0 125 -9 233t-28 205q-34 192 -123 416h117q45 -118 76.5 -219.5t47.5 -198.5q37 -184 37 -436z" />
    <glyph glyph-name="asterisk" unicode="*" horiz-adv-x="672" 
d="M580 796l-184 116v-230h-120v230l-184 -116l-59 114l182 114l-182 114l59 114l184 -116v230h120v-230l184 116l57 -114l-183 -114l183 -114z" />
    <glyph glyph-name="plus" unicode="+" horiz-adv-x="661" 
d="M391 533v-277h-121v277h-256v128h256v277h121v-277h256v-128h-256z" />
    <glyph glyph-name="comma" unicode="," horiz-adv-x="224" 
d="M135 -167h-55l-29 337h113z" />
    <glyph glyph-name="hyphen" unicode="-" horiz-adv-x="798" 
d="M82 512v170h633v-170h-633z" />
    <glyph glyph-name="period" unicode="." horiz-adv-x="295" 
d="M82 0v170h121v-170h-121z" />
    <glyph glyph-name="slash" unicode="/" horiz-adv-x="563" 
d="M125 -157l-117 33l430 1648l117 -33z" />
    <glyph glyph-name="zero" unicode="0" horiz-adv-x="1165" 
d="M983 682q0 559 -401 559q-400 0 -400 -559q0 -557 400 -557q401 0 401 557zM1104 682q0 -297 -111 -471q-130 -211 -411 -211q-280 0 -410 211q-110 175 -110 471q0 295 110 471q132 213 410 213q279 0 411 -213q111 -176 111 -471z" />
    <glyph glyph-name="one" unicode="1" horiz-adv-x="295" 
d="M82 0v1366h121v-1366h-121z" />
    <glyph glyph-name="two" unicode="2" horiz-adv-x="1084" 
d="M80 0v195q0 202 135 340q136 139 334 139q196 0 266 43q103 58 103 241q0 162 -111 228q-83 55 -258 55q-300 0 -365 -155l-116 32q87 248 481 248q487 0 487 -408q0 -235 -130 -328q-113 -81 -357 -81q-141 0 -246 -107q-102 -108 -102 -247v-70h835v-125h-956z" />
    <glyph glyph-name="three" unicode="3" horiz-adv-x="1140" 
d="M1078 373q0 -373 -454 -373h-153q-322 0 -415 191l122 30q72 -96 293 -96h153q160 0 232 45q100 58 100 203q0 181 -160 227q-63 20 -309 20v124h95q160 0 237 44q105 58 105 205q0 168 -134 222q-75 28 -276 28q-225 0 -299 -101l-123 38q62 122 217 161q85 25 281 25
q453 0 453 -373q0 -119 -60 -195q-53 -65 -172 -114q135 -41 197 -104q70 -76 70 -207z" />
    <glyph glyph-name="four" unicode="4" horiz-adv-x="1114" 
d="M778 1296l-631 -905h631v905zM899 266v-266h-121v266h-768v142l672 958h217v-975h170v-125h-170z" />
    <glyph glyph-name="five" unicode="5" horiz-adv-x="1084" 
d="M1043 460q0 -201 -142 -331q-141 -129 -346 -129h-35q-256 0 -399 191l131 35q104 -101 303 -101q150 0 260 92q107 95 107 243t-109 245q-105 93 -258 93h-35q-108 0 -203 -53q-93 -53 -135 -151l-126 22l130 750h720v-125h-622l-69 -414q166 95 340 95q199 0 344 -128
q144 -131 144 -334z" />
    <glyph glyph-name="six" unicode="6" horiz-adv-x="1122" 
d="M948 460q0 147 -108 245q-107 93 -260 93q-154 0 -261 -95q-106 -94 -106 -243q0 -158 108 -249q101 -86 259 -86q149 0 259 92q109 91 109 243zM1067 460q0 -202 -142 -331q-141 -129 -345 -129q-280 0 -410 211q-110 175 -110 471q0 295 110 471q132 213 410 213
q312 0 440 -264l-114 -33q-99 172 -326 172q-209 0 -308 -153q-73 -123 -92 -350q187 184 400 184q206 0 346 -132q141 -129 141 -330z" />
    <glyph glyph-name="seven" unicode="7" horiz-adv-x="1016" 
d="M303 0h-154l707 1241h-829v125h972v-143z" />
    <glyph glyph-name="eight" unicode="8" horiz-adv-x="1186" 
d="M1003 373q0 147 -100 205q-77 42 -233 42h-154q-156 0 -232 -42q-100 -58 -100 -205q0 -145 100 -203q76 -45 232 -45h154q156 0 233 45q100 58 100 203zM968 993q0 145 -100 203q-77 45 -231 45h-86q-160 0 -232 -45q-102 -60 -102 -203q0 -145 102 -205q77 -44 232 -44
h86q154 0 231 44q100 58 100 205zM1122 373q0 -373 -452 -373h-154q-452 0 -452 373q0 128 71 207q57 63 195 104q-119 49 -172 114q-60 76 -60 195q0 373 453 373h86q451 0 451 -373q0 -119 -60 -195q-53 -65 -172 -114q137 -41 197 -104q69 -77 69 -207z" />
    <glyph glyph-name="nine" unicode="9" horiz-adv-x="1124" 
d="M910 906q0 155 -110 247q-98 88 -257 88q-153 0 -259 -90q-108 -96 -108 -245q0 -153 106 -247q106 -91 261 -91q148 0 257 91q110 98 110 247zM1063 682q0 -296 -109 -471q-130 -211 -411 -211q-315 0 -441 264l115 33q97 -172 326 -172q209 0 307 153q71 114 94 350
q-190 -184 -401 -184q-204 0 -346 130q-141 129 -141 332q0 200 143 331q136 129 344 129q279 0 411 -213q109 -175 109 -471z" />
    <glyph glyph-name="colon" unicode=":" horiz-adv-x="240" 
d="M56 0v127h120v-127h-120zM56 813v125h120v-125h-120z" />
    <glyph glyph-name="semicolon" unicode=";" horiz-adv-x="197" 
d="M123 -167h-55l-29 300h112zM35 815v123h121v-123h-121z" />
    <glyph glyph-name="less" unicode="&#x3c;" horiz-adv-x="354" 
d="M178 342l-157 340l157 342h113l-158 -342l158 -340h-113z" />
    <glyph glyph-name="equal" unicode="=" horiz-adv-x="744" 
d="M82 342v133h633v-133h-633zM82 721v133h633v-133h-633z" />
    <glyph glyph-name="greater" unicode="&#x3e;" horiz-adv-x="354" 
d="M176 342h-114l157 340l-157 342h114l156 -342z" />
    <glyph glyph-name="question" unicode="?" horiz-adv-x="1014" 
d="M129 0v125h119v-125h-119zM999 958q0 -235 -131 -328q-111 -81 -354 -81q-135 0 -188 -29q-76 -40 -78 -166h-119q6 185 107 256q82 64 278 64q195 0 266 43q101 59 101 241q0 162 -111 228q-85 55 -256 55q-302 0 -367 -155l-116 32q87 248 483 248q485 0 485 -408z" />
    <glyph glyph-name="at" unicode="@" horiz-adv-x="1387" 
d="M889 731q0 205 -172 205q-213 0 -213 -303q0 -203 172 -203q213 0 213 301zM1335 682q0 -166 -63 -293q-80 -165 -223 -165q-81 0 -133 64q-46 52 -58 140q-88 -82 -190 -82q-250 0 -250 284q0 166 69 267q82 123 238 123q95 0 183 -86l8 86h85l-49 -578q0 -35 23 -84
q30 -49 70 -49q93 0 149 147q45 112 45 226q0 237 -153 408q-160 178 -390 178q-232 0 -389 -178q-154 -172 -154 -408q0 -231 152 -406q154 -178 391 -178h332v-98h-332q-272 0 -458 209q-182 202 -182 473q0 274 182 477q187 207 458 207q270 0 459 -207
q180 -198 180 -477z" />
    <glyph glyph-name="A" unicode="A" horiz-adv-x="1204" 
d="M600 1258l-272 -779h545zM1040 0l-124 354h-634l-124 -354h-125l477 1366h178l481 -1366h-129z" />
    <glyph glyph-name="B" unicode="B" horiz-adv-x="1292" 
d="M1106 373q0 146 -101 205q-77 42 -231 42h-571v-495h571q154 0 231 45q101 59 101 203zM1073 993q0 143 -103 203q-71 45 -230 45h-537v-497h537q153 0 230 44q103 60 103 205zM1227 373q0 -373 -453 -373h-692v1366h658q452 0 452 -373q0 -119 -60 -195
q-51 -65 -172 -114q138 -41 195 -104q72 -78 72 -207z" />
    <glyph glyph-name="C" unicode="C" horiz-adv-x="1190" 
d="M1022 999q-110 242 -392 242q-226 0 -348 -170q-102 -149 -102 -389q0 -239 102 -387q122 -170 348 -170q279 0 392 242l116 -33q-136 -334 -508 -334q-280 0 -433 207q-137 182 -137 475q0 295 137 477q153 207 433 207q367 0 510 -336z" />
    <glyph glyph-name="D" unicode="D" horiz-adv-x="1284" 
d="M1104 682q0 237 -105 389q-116 170 -348 170h-450v-1116h450q232 0 348 170q105 148 105 387zM1225 682q0 -288 -137 -475q-153 -207 -437 -207h-571v1366h571q284 0 437 -207q137 -188 137 -477z" />
    <glyph glyph-name="E" unicode="E" horiz-adv-x="987" 
d="M80 0v1366h888v-125h-767v-497h682v-124h-682v-495h767v-125h-888z" />
    <glyph glyph-name="F" unicode="F" horiz-adv-x="968" 
d="M201 1241v-497h682v-124h-682v-620h-121v1366h888v-125h-767z" />
    <glyph glyph-name="G" unicode="G" horiz-adv-x="1266" 
d="M1082 0v280q-178 -280 -454 -280q-280 0 -433 207q-137 182 -137 475q0 295 137 477q153 207 433 207q367 0 510 -336l-118 -33q-109 244 -392 244q-226 0 -348 -170q-102 -149 -102 -389q0 -239 102 -387q122 -170 348 -170q210 0 330 147q101 131 124 348h-427v124h547
v-744h-120z" />
    <glyph glyph-name="H" unicode="H" horiz-adv-x="1221" 
d="M1020 0v620h-819v-620h-121v1366h121v-622h819v622h118v-1366h-118z" />
    <glyph glyph-name="I" unicode="I" horiz-adv-x="291" 
d="M80 0v1366h121v-1366h-121z" />
    <glyph glyph-name="J" unicode="J" horiz-adv-x="701" 
d="M635 682q0 -283 -100 -461q-128 -221 -388 -221q-84 0 -145 19v134q65 -28 145 -28q367 0 367 557v684h121v-684z" />
    <glyph glyph-name="K" unicode="K" horiz-adv-x="1157" 
d="M934 0l-573 594l-160 -166v-428h-121v1366h121v-764l733 764h168l-656 -684l656 -682h-168z" />
    <glyph glyph-name="L" unicode="L" horiz-adv-x="968" 
d="M80 0v1366h121v-1241h767v-125h-888z" />
    <glyph glyph-name="M" unicode="M" horiz-adv-x="1532" 
d="M1335 0v1094l-491 -1094h-154l-491 1094v-1094h-121v1366h129l559 -1248l559 1248h129v-1366h-119z" />
    <glyph glyph-name="N" unicode="N" horiz-adv-x="1217" 
d="M1005 0l-806 1163v-1163h-121v1366h131l809 -1165v1165h118v-1366h-131z" />
    <glyph glyph-name="O" unicode="O" horiz-adv-x="1260" 
d="M1082 682q0 237 -105 389q-119 170 -349 170q-226 0 -348 -170q-102 -149 -102 -389q0 -239 102 -387q122 -170 348 -170q230 0 349 170q105 148 105 387zM1202 682q0 -288 -137 -475q-153 -207 -437 -207q-280 0 -433 207q-137 182 -137 475q0 295 137 477
q153 207 433 207q284 0 437 -207q137 -188 137 -477z" />
    <glyph glyph-name="P" unicode="P" horiz-adv-x="1233" 
d="M1102 993q0 144 -101 203q-77 45 -231 45h-571v-497h571q154 0 231 44q101 59 101 205zM1223 993q0 -373 -453 -373h-571v-620h-121v1366h692q453 0 453 -373z" />
    <glyph glyph-name="Q" unicode="Q" horiz-adv-x="1248" 
d="M1063 686q0 238 -105 387q-122 170 -348 170t-348 -170q-102 -149 -102 -387q0 -241 102 -385q122 -170 348 -170t348 170q105 142 105 385zM616 6q-282 0 -436 205q-141 184 -141 475q0 288 139 475q151 205 432 205t435 -205q139 -187 139 -475q0 -439 -336 -635
l336 -124v-129z" />
    <glyph glyph-name="R" unicode="R" horiz-adv-x="1286" 
d="M1102 993q0 144 -101 203q-77 45 -231 45h-571v-497h571q154 0 231 44q101 59 101 205zM1223 993q0 -338 -410 -373l387 -620h-141l-389 620h-471v-620h-121v1366h692q453 0 453 -373z" />
    <glyph glyph-name="S" unicode="S" horiz-adv-x="1151" 
d="M1096 373q0 -201 -172 -295q-138 -78 -348 -78q-171 0 -294 49q-156 65 -208 199l119 32q66 -155 383 -155q399 0 399 248q0 247 -399 247q-214 0 -350 78q-172 94 -172 295q0 196 172 293q137 80 350 80q167 0 290 -49q160 -64 209 -199l-119 -32q-68 155 -380 155
q-402 0 -402 -248q0 -249 402 -249q215 0 348 -76q172 -97 172 -295z" />
    <glyph glyph-name="T" unicode="T" horiz-adv-x="1005" 
d="M563 1241v-1241h-119v1241h-428v125h973v-125h-426z" />
    <glyph glyph-name="U" unicode="U" horiz-adv-x="1280" 
d="M1213 682q0 -289 -138 -475q-153 -207 -436 -207q-281 0 -434 207q-137 182 -137 475v684h121v-684q0 -239 102 -387q122 -170 348 -170q229 0 348 170q105 148 105 387v684h121v-684z" />
    <glyph glyph-name="V" unicode="V" horiz-adv-x="1198" 
d="M686 0h-178l-477 1366h125l442 -1258l442 1258h127z" />
    <glyph glyph-name="W" unicode="W" horiz-adv-x="1774" 
d="M1370 0h-188l-297 1151l-297 -1151h-186l-351 1366h121l321 -1252l324 1252h137l322 -1252l324 1252h122z" />
    <glyph glyph-name="X" unicode="X" horiz-adv-x="1227" 
d="M1020 0l-406 578l-405 -578h-147l479 682l-479 684h149l403 -578l404 578h147l-479 -684l479 -682h-145z" />
    <glyph glyph-name="Y" unicode="Y" horiz-adv-x="1149" 
d="M635 661v-661h-119v661l-493 705h149l404 -578l403 578h147z" />
    <glyph glyph-name="Z" unicode="Z" horiz-adv-x="1142" 
d="M41 0v141l911 1100h-911v125h1059v-141l-909 -1100h909v-125h-1059z" />
    <glyph glyph-name="bracketleft" unicode="[" horiz-adv-x="469" 
d="M78 -167v1703h376v-123h-255v-1457h255v-123h-376z" />
    <glyph glyph-name="backslash" unicode="\" horiz-adv-x="563" 
d="M438 -157l-430 1648l117 33l430 -1648z" />
    <glyph glyph-name="bracketright" unicode="]" horiz-adv-x="473" 
d="M14 -167v123h256v1457h-256v123h377v-1703h-377z" />
    <glyph glyph-name="asciicircum" unicode="^" horiz-adv-x="665" 
d="M496 1142l-162 164l-162 -164h-129l199 224h184l196 -224h-126z" />
    <glyph glyph-name="underscore" unicode="_" horiz-adv-x="958" 
d="M78 -167v167h801v-167h-801z" />
    <glyph glyph-name="grave" unicode="`" horiz-adv-x="352" 
d="M264 1450l-258 256h154l163 -256h-59z" />
    <glyph glyph-name="a" unicode="a" horiz-adv-x="940" 
d="M758 512q0 406 -300 406q-298 0 -298 -406q0 -404 298 -404q300 0 300 404zM758 0v186q-70 -102 -123 -139q-71 -47 -177 -47q-209 0 -313 158q-87 129 -87 354t87 354q104 158 313 158q112 0 177 -49q56 -41 123 -142v191h102v-1024h-102z" />
    <glyph glyph-name="b" unicode="b" horiz-adv-x="903" 
d="M778 506q0 400 -299 400t-299 -400t299 -400t299 400zM881 506q0 -225 -89 -353q-102 -153 -313 -153q-102 0 -176 47q-26 19 -57 52.5t-66 84.5v-184h-102v1366h102v-543q69 102 123 139q72 48 176 48q210 0 313 -154q89 -128 89 -350z" />
    <glyph glyph-name="c" unicode="c" horiz-adv-x="842" 
d="M688 805q-74 113 -232 113q-298 0 -298 -406q0 -404 298 -404q158 0 232 113l102 -30q-104 -191 -334 -191q-210 0 -315 158q-85 130 -85 354q0 225 87 354q104 158 313 158q230 0 334 -191z" />
    <glyph glyph-name="d" unicode="d" horiz-adv-x="906" 
d="M723 506q0 400 -299 400t-299 -400t299 -400t299 400zM723 0v184q-65 -99 -123 -137q-71 -47 -176 -47q-214 0 -314 153q-87 126 -87 353q0 224 87 350q100 154 314 154q102 0 176 -48q56 -39 123 -139v543h102v-1366h-102z" />
    <glyph glyph-name="e" unicode="e" horiz-adv-x="910" 
d="M756 568q-29 350 -298 350t-296 -350h594zM860 485q0 -6 -0.5 -13.5t-1.5 -15.5h-696q28 -348 296 -348q160 0 234 113l100 -28q-97 -193 -334 -193q-209 0 -313 158q-87 129 -87 354t87 354q104 158 313 158q210 0 314 -158q88 -128 88 -354v-27z" />
    <glyph glyph-name="f" unicode="f" horiz-adv-x="500" 
d="M489 1258q-272 -15 -272 -398v-116h170v-105h-170v-639h-103v639h-85v105h85v116q0 208 81 342q97 153 294 164v-108z" />
    <glyph glyph-name="g" unicode="g" horiz-adv-x="928" 
d="M754 518q0 400 -300 400q-298 0 -298 -400t298 -400q300 0 300 400zM856 164q0 -219 -88 -349q-103 -154 -314 -154q-234 0 -331 189l101 28q72 -111 230 -111q166 0 240 146q48 92 64 290q-35 -51 -66 -85t-59 -54q-74 -50 -179 -50q-208 0 -313 154q-87 126 -87 350
q0 226 87 352q105 154 313 154q106 0 176 -49q59 -41 124 -140v189h102v-860z" />
    <glyph glyph-name="h" unicode="h" horiz-adv-x="910" 
d="M778 0v506q0 400 -299 400t-299 -400v-506h-102v1366h102v-543q69 102 123 139q72 48 176 48q210 0 313 -154q89 -128 89 -350v-506h-103z" />
    <glyph glyph-name="i" unicode="i" horiz-adv-x="236" 
d="M62 0v1012h102v-1012h-102zM62 1225v106h102v-106h-102z" />
    <glyph glyph-name="j" unicode="j" horiz-adv-x="234" 
d="M60 -339v1353h102v-1353h-102zM60 1225v106h102v-106h-102z" />
    <glyph glyph-name="k" unicode="k" horiz-adv-x="850" 
d="M701 0l-417 430l-104 -109v-321h-102v1366h102v-895l521 539h143l-486 -504l486 -506h-143z" />
    <glyph glyph-name="l" unicode="l" horiz-adv-x="270" 
d="M78 0v1366h102v-1366h-102z" />
    <glyph glyph-name="m" unicode="m" horiz-adv-x="1450" 
d="M1274 0v512q0 182 -35 270q-55 136 -213 136q-162 0 -213 -136q-35 -88 -35 -270v-512h-102v512q0 182 -35 270q-52 136 -213 136q-159 0 -213 -136q-35 -88 -35 -270v-512h-102v1024h102v-158q108 158 248 158q119 0 190 -60q62 -51 109 -172q48 121 108 172
q73 60 191 60q208 0 289 -162q61 -119 61 -350v-512h-102z" />
    <glyph glyph-name="n" unicode="n" horiz-adv-x="950" 
d="M778 0v512q0 406 -299 406t-299 -406v-512h-102v1024h102v-191q67 99 123 142q70 49 176 49q209 0 313 -158q89 -131 89 -354v-512h-103z" />
    <glyph glyph-name="o" unicode="o" horiz-adv-x="920" 
d="M758 512q0 406 -300 406q-298 0 -298 -406q0 -404 298 -404q300 0 300 404zM860 512q0 -226 -88 -354q-104 -158 -314 -158q-211 0 -315 158q-85 130 -85 354q0 225 87 354q104 158 313 158q210 0 314 -158q88 -128 88 -354z" />
    <glyph glyph-name="p" unicode="p" horiz-adv-x="903" 
d="M778 518q0 400 -299 400t-299 -400t299 -400t299 400zM881 518q0 -222 -89 -350q-103 -154 -313 -154q-104 0 -176 48q-54 37 -123 139v-540h-102v1363h102v-184q35 51 65.5 84.5t57.5 54.5q70 45 176 45q210 0 313 -154q89 -128 89 -352z" />
    <glyph glyph-name="q" unicode="q" horiz-adv-x="903" 
d="M721 518q0 400 -299 400t-299 -400t299 -400t299 400zM721 -339v540q-67 -100 -123 -139q-74 -48 -176 -48q-214 0 -314 154q-87 126 -87 350q0 226 87 352q100 154 314 154q111 0 176 -45q28 -20 58.5 -55t64.5 -84v184h102v-1363h-102z" />
    <glyph glyph-name="r" unicode="r" horiz-adv-x="460" 
d="M454 916q-274 -19 -274 -404v-512h-102v1024h102v-191q29 48 57.5 80.5t55.5 54.5q72 54 161 56v-108z" />
    <glyph glyph-name="s" unicode="s" horiz-adv-x="916" 
d="M858 286q0 -286 -402 -286q-297 0 -370 145l107 31q57 -70 221 -70q162 0 225 17q117 37 117 163q0 170 -240 170q-220 0 -307 40q-153 61 -153 242q0 286 400 286q297 0 373 -145l-108 -31q-55 70 -221 70q-161 0 -224 -17q-118 -33 -118 -163q0 -170 242 -170
q218 0 307 -40q151 -61 151 -242z" />
    <glyph glyph-name="t" unicode="t" horiz-adv-x="502" 
d="M489 0q-197 11 -294 164q-81 129 -81 342v400h-85v104h85v356h103v-356h170v-104h-170v-400q0 -383 272 -398v-108z" />
    <glyph glyph-name="u" unicode="u" horiz-adv-x="950" 
d="M768 0v191q-65 -101 -123 -142q-70 -49 -176 -49q-211 0 -313 158q-88 130 -88 354v512h102v-512q0 -404 299 -404t299 404v512h102v-1024h-102z" />
    <glyph glyph-name="v" unicode="v" horiz-adv-x="934" 
d="M545 0h-160l-352 1024h106l326 -940l325 940h111z" />
    <glyph glyph-name="w" unicode="w" horiz-adv-x="1397" 
d="M1082 0h-168l-216 846l-215 -846h-172l-257 1024h104l240 -946l241 946h119l239 -946l242 946h104z" />
    <glyph glyph-name="x" unicode="x" horiz-adv-x="960" 
d="M770 0l-291 422l-290 -422h-127l356 512l-356 512h127l290 -422l291 422h127l-356 -512l356 -512h-127z" />
    <glyph glyph-name="y" unicode="y" horiz-adv-x="920" 
d="M420 -339h-111l101 282l-379 1081h106l326 -928l325 928h111z" />
    <glyph glyph-name="z" unicode="z" horiz-adv-x="903" 
d="M49 0v125l674 793h-674v106h803v-125l-672 -791h672v-108h-803z" />
    <glyph glyph-name="braceleft" unicode="{" horiz-adv-x="598" 
d="M559 -167q-375 12 -375 462v176q0 68 -52 113q-50 44 -120 53v92q70 9 120 52q52 43 52 114v176q0 448 375 465v-106q-196 -10 -250 -211q-11 -48 -17 -137.5t-6 -223.5q0 -63 -42 -105q-44 -44 -103 -44v-52q59 0 103 -44q42 -42 42 -105v-27q0 -7 -0.5 -16.5
t-1.5 -20.5v-63q0 -190 44 -293q63 -143 231 -151v-104z" />
    <glyph glyph-name="bar" unicode="|" 
d="M78 -167v1703h121v-1703h-121z" />
    <glyph glyph-name="braceright" unicode="}" horiz-adv-x="598" 
d="M584 637q-71 -11 -119 -51q-51 -45 -51 -115v-176q0 -450 -377 -462v104q200 8 251 208q11 46 17 135.5t6 227.5q0 61 42 105q44 44 101 44v52q-57 0 -101 44q-42 42 -42 105v60v61q0 189 -41 297q-64 143 -233 154v106q377 -14 377 -465v-176q0 -70 51 -115
q48 -40 119 -51v-92z" />
    <glyph glyph-name="asciitilde" unicode="~" horiz-adv-x="641" 
d="M600 1302q0 -84 -49 -151q-55 -76 -135 -76q-30 0 -88 72q-60 74 -111 74q-110 0 -180 -85q0 85 49 152q55 78 135 78q32 0 88 -74q60 -71 113 -71q112 0 178 81z" />
    <glyph glyph-name="quotesinglbase" horiz-adv-x="217" 
d="M133 -167h-55l-29 337h113z" />
    <glyph glyph-name="quotesinglbase" unicode="&#x201a;" horiz-adv-x="217" 
d="M133 -167h-55l-29 337h113z" />
    <glyph glyph-name="quotedblbase" horiz-adv-x="508" 
d="M151 -167h-55l-28 337h112zM408 -167h-56l-29 337h113z" />
    <glyph glyph-name="quotedblbase" unicode="&#x201e;" horiz-adv-x="508" 
d="M151 -167h-55l-28 337h112zM408 -167h-56l-29 337h113z" />
    <glyph glyph-name="ellipsis" unicode="&#x85;" horiz-adv-x="960" 
d="M78 0v170h121v-170h-121zM420 0v170h119v-170h-119zM762 0v170h119v-170h-119z" />
    <glyph glyph-name="ellipsis" unicode="&#x2026;" horiz-adv-x="960" 
d="M78 0v170h121v-170h-121zM420 0v170h119v-170h-119zM762 0v170h119v-170h-119z" />
    <glyph glyph-name="circumflex" horiz-adv-x="665" 
d="M496 1450l-162 164l-162 -164h-129l199 223h184l196 -223h-126z" />
    <glyph glyph-name="circumflex" unicode="&#x2c6;" horiz-adv-x="665" 
d="M496 1450l-162 164l-162 -164h-129l199 223h184l196 -223h-126z" />
    <glyph glyph-name="perthousand" horiz-adv-x="1884" 
d="M1112 369q0 217 -146 217q-100 0 -131 -93q-14 -47 -14 -174q0 -213 145 -213q102 0 130 91q16 49 16 172zM463 1043q0 217 -146 217q-103 0 -128 -93q-17 -53 -17 -174q0 -213 145 -213q100 0 129 90q17 53 17 173zM1743 369q0 217 -145 217q-103 0 -130 -93
q-16 -47 -16 -174q0 -213 146 -213q101 0 129 91q16 47 16 172zM1215 346q0 -346 -249 -346q-247 0 -247 346t247 346q249 0 249 -346zM252 0h-158l936 1366h160zM566 1020q0 -346 -249 -346q-247 0 -247 346t247 346q249 0 249 -346zM1845 346q0 -346 -247 -346
q-248 0 -248 346t248 346q247 0 247 -346z" />
    <glyph glyph-name="perthousand" unicode="&#x2030;" horiz-adv-x="1884" 
d="M1112 369q0 217 -146 217q-100 0 -131 -93q-14 -47 -14 -174q0 -213 145 -213q102 0 130 91q16 49 16 172zM463 1043q0 217 -146 217q-103 0 -128 -93q-17 -53 -17 -174q0 -213 145 -213q100 0 129 90q17 53 17 173zM1743 369q0 217 -145 217q-103 0 -130 -93
q-16 -47 -16 -174q0 -213 146 -213q101 0 129 91q16 47 16 172zM1215 346q0 -346 -249 -346q-247 0 -247 346t247 346q249 0 249 -346zM252 0h-158l936 1366h160zM566 1020q0 -346 -249 -346q-247 0 -247 346t247 346q249 0 249 -346zM1845 346q0 -346 -247 -346
q-248 0 -248 346t248 346q247 0 247 -346z" />
    <glyph glyph-name="Scaron" horiz-adv-x="1110" 
d="M1078 371q0 -199 -172 -293q-140 -78 -349 -78q-171 0 -293 49q-158 63 -208 197l118 32q68 -155 383 -155q399 0 399 248q0 245 -399 245q-219 0 -350 76q-172 97 -172 295q0 195 172 291q136 78 350 78q162 0 291 -50q159 -65 209 -196l-119 -32q-68 155 -381 155
q-401 0 -401 -246q0 -247 401 -247q212 0 349 -79q172 -94 172 -290zM649 1497h-184l-199 176h128l163 -131l162 131h127z" />
    <glyph glyph-name="Scaron" unicode="&#x160;" horiz-adv-x="1110" 
d="M1078 371q0 -199 -172 -293q-140 -78 -349 -78q-171 0 -293 49q-158 63 -208 197l118 32q68 -155 383 -155q399 0 399 248q0 245 -399 245q-219 0 -350 76q-172 97 -172 295q0 195 172 291q136 78 350 78q162 0 291 -50q159 -65 209 -196l-119 -32q-68 155 -381 155
q-401 0 -401 -246q0 -247 401 -247q212 0 349 -79q172 -94 172 -290zM649 1497h-184l-199 176h128l163 -131l162 131h127z" />
    <glyph glyph-name="guilsinglleft" horiz-adv-x="348" 
d="M176 342l-157 340l157 342h112l-157 -342l157 -340h-112z" />
    <glyph glyph-name="guilsinglleft" unicode="&#x2039;" horiz-adv-x="348" 
d="M176 342l-157 340l157 342h112l-157 -342l157 -340h-112z" />
    <glyph glyph-name="OE" horiz-adv-x="1853" 
d="M1088 682q0 237 -105 389q-119 170 -348 170q-227 0 -349 -170q-102 -149 -102 -389q0 -239 102 -387q122 -170 349 -170q229 0 348 170q105 148 105 387zM1088 0v226q-196 -226 -453 -226q-281 0 -434 207q-137 182 -137 475q0 295 137 477q153 207 434 207
q257 0 453 -226v226h716v-125h-596v-497h512v-124h-512v-495h596v-125h-716z" />
    <glyph glyph-name="OE" unicode="&#x152;" horiz-adv-x="1853" 
d="M1088 682q0 237 -105 389q-119 170 -348 170q-227 0 -349 -170q-102 -149 -102 -389q0 -239 102 -387q122 -170 349 -170q229 0 348 170q105 148 105 387zM1088 0v226q-196 -226 -453 -226q-281 0 -434 207q-137 182 -137 475q0 295 137 477q153 207 434 207
q257 0 453 -226v226h716v-125h-596v-497h512v-124h-512v-495h596v-125h-716z" />
    <glyph glyph-name="quoteleft" horiz-adv-x="221" 
d="M54 1024l28 342h55l29 -342h-112z" />
    <glyph glyph-name="quoteleft" unicode="&#x2018;" horiz-adv-x="221" 
d="M54 1024l28 342h55l29 -342h-112z" />
    <glyph glyph-name="quoteright" horiz-adv-x="217" 
d="M133 1024h-55l-29 342h113z" />
    <glyph glyph-name="quoteright" unicode="&#x2019;" horiz-adv-x="217" 
d="M133 1024h-55l-29 342h113z" />
    <glyph glyph-name="quotedblleft" horiz-adv-x="510" 
d="M70 1024l28 342h55l29 -342h-112zM326 1024l28 342h56l28 -342h-112z" />
    <glyph glyph-name="quotedblleft" unicode="&#x201c;" horiz-adv-x="510" 
d="M70 1024l28 342h55l29 -342h-112zM326 1024l28 342h56l28 -342h-112z" />
    <glyph glyph-name="quotedblright" horiz-adv-x="508" 
d="M151 1024h-55l-28 342h112zM408 1024h-56l-29 342h113z" />
    <glyph glyph-name="quotedblright" unicode="&#x201d;" horiz-adv-x="508" 
d="M151 1024h-55l-28 342h112zM408 1024h-56l-29 342h113z" />
    <glyph glyph-name="bullet" horiz-adv-x="752" 
d="M692 682q0 -391 -317 -391q-315 0 -315 391q0 393 315 393q317 0 317 -393z" />
    <glyph glyph-name="bullet" unicode="&#x2022;" horiz-adv-x="752" 
d="M692 682q0 -391 -317 -391q-315 0 -315 391q0 393 315 393q317 0 317 -393z" />
    <glyph glyph-name="endash" horiz-adv-x="537" 
d="M78 512v170h376v-170h-376z" />
    <glyph glyph-name="endash" unicode="&#x2013;" horiz-adv-x="537" 
d="M78 512v170h376v-170h-376z" />
    <glyph glyph-name="emdash" horiz-adv-x="1047" 
d="M78 512v170h888v-170h-888z" />
    <glyph glyph-name="emdash" unicode="&#x2014;" horiz-adv-x="1047" 
d="M78 512v170h888v-170h-888z" />
    <glyph glyph-name="tilde" horiz-adv-x="641" 
d="M600 1696q0 -84 -49 -154q-56 -74 -135 -74q-30 0 -88 72q-60 74 -111 74q-110 0 -180 -84q0 84 49 151q55 76 135 76q32 0 88 -72q60 -71 113 -71q111 0 178 82z" />
    <glyph glyph-name="tilde" unicode="&#x2dc;" horiz-adv-x="641" 
d="M600 1696q0 -84 -49 -154q-56 -74 -135 -74q-30 0 -88 72q-60 74 -111 74q-110 0 -180 -84q0 84 49 151q55 76 135 76q32 0 88 -72q60 -71 113 -71q111 0 178 82z" />
    <glyph glyph-name="trademark" horiz-adv-x="1053" 
d="M908 854v361l-168 -361h-70l-168 361v-361h-66v448h-160v-448h-63v448h-159v64h448l203 -438l203 438h64v-512h-64z" />
    <glyph glyph-name="trademark" unicode="&#x2122;" horiz-adv-x="1053" 
d="M908 854v361l-168 -361h-70l-168 361v-361h-66v448h-160v-448h-63v448h-159v64h448l203 -438l203 438h64v-512h-64z" />
    <glyph glyph-name="scaron" horiz-adv-x="875" 
d="M835 282q0 -282 -401 -282q-298 0 -370 143l106 31q59 -68 221 -68q170 0 223 15q119 38 119 161q0 170 -240 170q-211 0 -307 35q-153 61 -153 240q0 285 401 285q293 0 373 -146l-109 -28q-55 70 -221 70q-170 0 -221 -19q-121 -34 -121 -162q0 -103 78 -139
q55 -29 164 -29q211 0 307 -35q151 -61 151 -242zM526 1153h-184l-197 178h127l162 -131l162 131h129z" />
    <glyph glyph-name="scaron" unicode="&#x161;" horiz-adv-x="875" 
d="M835 282q0 -282 -401 -282q-298 0 -370 143l106 31q59 -68 221 -68q170 0 223 15q119 38 119 161q0 170 -240 170q-211 0 -307 35q-153 61 -153 240q0 285 401 285q293 0 373 -146l-109 -28q-55 70 -221 70q-170 0 -221 -19q-121 -34 -121 -162q0 -103 78 -139
q55 -29 164 -29q211 0 307 -35q151 -61 151 -242zM526 1153h-184l-197 178h127l162 -131l162 131h129z" />
    <glyph glyph-name="guilsinglright" horiz-adv-x="350" 
d="M174 342h-114l157 340l-157 342h114l156 -342z" />
    <glyph glyph-name="guilsinglright" unicode="&#x203a;" horiz-adv-x="350" 
d="M174 342h-114l157 340l-157 342h114l156 -342z" />
    <glyph glyph-name="oe" horiz-adv-x="1632" 
d="M768 512q0 406 -299 406t-299 -406q0 -404 299 -404t299 404zM1466 568q-27 350 -297 350t-296 -350h593zM1571 485q0 -6 -0.5 -13.5t-1.5 -15.5h-696q28 -348 296 -348q157 0 234 113l100 -28q-97 -193 -334 -193q-226 0 -350 217q-124 -217 -350 -217q-211 0 -316 158
q-85 130 -85 354t88 354q102 158 313 158q227 0 350 -219q123 219 350 219q209 0 313 -158q89 -131 89 -354v-27z" />
    <glyph glyph-name="oe" unicode="&#x153;" horiz-adv-x="1632" 
d="M768 512q0 406 -299 406t-299 -406q0 -404 299 -404t299 404zM1466 568q-27 350 -297 350t-296 -350h593zM1571 485q0 -6 -0.5 -13.5t-1.5 -15.5h-696q28 -348 296 -348q157 0 234 113l100 -28q-97 -193 -334 -193q-226 0 -350 217q-124 -217 -350 -217q-211 0 -316 158
q-85 130 -85 354t88 354q102 158 313 158q227 0 350 -219q123 219 350 219q209 0 313 -158q89 -131 89 -354v-27z" />
    <glyph glyph-name="Ydieresis" horiz-adv-x="1124" 
d="M622 659v-659h-118v659l-494 699h150l403 -574l403 574h148zM334 1499v123h118v-123h-118zM674 1499v123h120v-123h-120z" />
    <glyph glyph-name="Ydieresis" unicode="&#x178;" horiz-adv-x="1124" 
d="M622 659v-659h-118v659l-494 699h150l403 -574l403 574h148zM334 1499v123h118v-123h-118zM674 1499v123h120v-123h-120z" />
    <glyph glyph-name="nonbreakingspace" unicode="&#xa0;" horiz-adv-x="746" 
 />
    <glyph glyph-name="exclamdown" unicode="&#xa1;" horiz-adv-x="230" 
d="M51 -339l19 1009h83l19 -1009h-121zM51 899v125h121v-125h-121z" />
    <glyph glyph-name="cent" unicode="&#xa2;" horiz-adv-x="788" 
d="M383 1252q-248 -59 -248 -398t248 -398v796zM665 1142q-53 79 -180 110v-796q127 31 180 110l103 -29q-84 -160 -283 -187v-180h-102v180q-350 53 -350 504q0 450 350 504v178h102v-178q201 -31 283 -187z" />
    <glyph glyph-name="yen" unicode="&#xa5;" horiz-adv-x="1149" 
d="M635 661v-661h-119v661l-493 705h149l404 -578l403 578h147z" />
    <glyph glyph-name="dieresis" unicode="&#xa8;" horiz-adv-x="618" 
d="M78 1450v172h121v-172h-121zM420 1450v172h119v-172h-119z" />
    <glyph glyph-name="copyright" unicode="&#xa9;" horiz-adv-x="561" 
d="M398 184q-31 -82 -122 -82q-62 0 -100 47q-35 44 -35 107q0 69 36 111.5t99 42.5q91 0 122 -82l-37 -11q-23 54 -85 54q-96 0 -96 -115t96 -115q62 0 85 54zM458 256q0 42 -13 80t-36 67.5t-56 46.5t-73 17t-73 -17t-57 -46.5t-37 -67.5t-13 -80q0 -85 49 -146
q54 -65 131 -65q78 0 132 65q46 64 46 146zM504 256q0 -109 -56 -180q-60 -76 -168 -76q-109 0 -170 76q-52 71 -52 180t52 180q61 76 170 76q108 0 165 -73q59 -74 59 -183z" />
    <glyph glyph-name="guillemotleft" unicode="&#xab;" horiz-adv-x="692" 
d="M203 342l-158 340l158 342h112l-157 -342l157 -340h-112zM510 342l-158 340l158 342h112l-157 -342l157 -340h-112z" />
    <glyph glyph-name="minus" unicode="&#xad;" horiz-adv-x="790" 
d="M78 512v170h633v-170h-633z" />
    <glyph glyph-name="registered" unicode="&#xae;" horiz-adv-x="561" 
d="M145 398q-45 -59 -45 -142q0 -84 45 -142v284zM369 102l-87 136h-98v-136h-28q49 -57 124 -57q76 0 126 57h-37zM458 256q0 42 -13 80t-36 67.5t-56 46.5t-73 17q-75 0 -124 -57h151q109 0 109 -87q0 -79 -90 -85l84 -130q48 64 48 148zM377 323q0 48 -70 48h-123v-97
h123q70 0 70 49zM504 256q0 -109 -56 -180q-60 -76 -168 -76q-109 0 -170 76q-52 71 -52 180t52 180q61 76 170 76q108 0 165 -73q59 -74 59 -183z" />
    <glyph glyph-name="macron" unicode="&#xaf;" horiz-adv-x="790" 
d="M78 1194v172h633v-172h-633z" />
    <glyph glyph-name="degree" unicode="&#xb0;" horiz-adv-x="365" 
d="M266 1235q0 35 -24 61.5t-62 26.5q-18 0 -33.5 -7.5t-27 -19.5t-18.5 -28t-7 -33q0 -18 7 -34t18.5 -28t27 -19t33.5 -7q37 0 61.5 25.5t24.5 62.5zM309 1235q0 -53 -38 -94q-36 -39 -91 -39q-53 0 -90 39q-36 40 -36 94q0 50 36 91q37 40 90 40q55 0 91 -40
q38 -41 38 -91z" />
    <glyph glyph-name="plusminus" unicode="&#xb1;" horiz-adv-x="686" 
d="M27 0v127h632v-127h-632zM404 628v-267h-122v267h-255v126h255v270h122v-270h255v-126h-255z" />
    <glyph glyph-name="acute" unicode="&#xb4;" horiz-adv-x="350" 
d="M84 1450h-57l164 256h153z" />
    <glyph glyph-name="paragraph" unicode="&#xb6;" horiz-adv-x="1250" 
d="M1022 1194v-1361h-170v1361h-170v-1361h-172v765q-477 0 -477 383q0 385 477 385h684v-172h-172z" />
    <glyph glyph-name="periodcentered" unicode="&#xb7;" 
d="M78 598v170h121v-170h-121z" />
    <glyph glyph-name="guillemotright" unicode="&#xbb;" horiz-adv-x="694" 
d="M184 342h-114l158 340l-158 342h114l156 -342zM491 342h-114l158 340l-158 342h114l156 -342z" />
    <glyph glyph-name="questiondown" unicode="&#xbf;" horiz-adv-x="1014" 
d="M983 -91q-89 -248 -483 -248q-488 0 -488 407q0 231 133 328q113 79 355 79q135 0 188 29q74 40 76 166h119q-4 -187 -105 -256q-86 -64 -280 -64q-193 0 -264 -43q-101 -59 -101 -239q0 -161 109 -227q86 -55 258 -55q299 0 364 155zM764 899v125h119v-125h-119z" />
    <glyph glyph-name="Agrave" unicode="&#xc0;" horiz-adv-x="1180" 
d="M592 1250l-273 -775h545zM1032 0l-124 352h-634l-125 -352h-124l477 1356h178l481 -1356h-129zM533 1495l-261 211h154l164 -211h-57z" />
    <glyph glyph-name="Aacute" unicode="&#xc1;" horiz-adv-x="1180" 
d="M586 1250l-273 -775h545zM1026 0l-125 352h-633l-125 -352h-124l477 1356h178l481 -1356h-129zM645 1495h-57l164 211h154z" />
    <glyph glyph-name="Acircumflex" unicode="&#xc2;" horiz-adv-x="1186" 
d="M592 1250l-273 -773h545zM1032 0l-124 352h-634l-125 -352h-124l477 1356h178l481 -1356h-129zM754 1497l-162 129l-162 -129h-129l199 176h184l199 -176h-129z" />
    <glyph glyph-name="Atilde" unicode="&#xc3;" horiz-adv-x="1194" 
d="M596 1248l-273 -773h545zM1036 0l-124 352h-634l-125 -352h-124l477 1354h178l481 -1354h-129zM879 1706q0 -40 -15.5 -75.5t-41 -62t-59 -42t-69.5 -15.5q-31 0 -88 62q-58 61 -113 61q-111 0 -178 -69q0 39 15 74t40.5 61t59 41.5t70.5 15.5q31 0 86 -61
q59 -62 112 -62q109 0 181 72z" />
    <glyph glyph-name="Adieresis" unicode="&#xc4;" horiz-adv-x="1182" 
d="M590 1252l-273 -775h545zM1030 0l-124 354h-634l-125 -354h-124l477 1358h178l481 -1358h-129zM361 1499v123h118v-123h-118zM701 1499v123h120v-123h-120z" />
    <glyph glyph-name="Aring" unicode="&#xc5;" horiz-adv-x="1188" 
d="M592 1250l-273 -775h545zM678 1602q0 18 -7 33.5t-18.5 27.5t-27 19t-33.5 7t-33.5 -7t-27 -19t-18.5 -27.5t-7 -33.5t7 -34.5t18.5 -28.5t27 -19t33.5 -7q36 0 61 26t25 63zM1032 0l-124 352h-634l-125 -352h-124l477 1356h178l481 -1356h-129zM721 1602q0 -52 -38 -93
q-38 -39 -91 -39t-90 39q-37 37 -37 93q0 54 37 91q37 40 90 40q54 0 91 -40q38 -41 38 -91z" />
    <glyph glyph-name="AE" unicode="&#xc6;" horiz-adv-x="1534" 
d="M772 1294l-348 -726h348v726zM772 0v444h-407l-214 -444h-122l651 1366h809v-125h-598v-497h512v-124h-512v-495h598v-125h-717z" />
    <glyph glyph-name="Egrave" unicode="&#xc8;" horiz-adv-x="948" 
d="M54 0v1356h888v-123h-768v-493h682v-124h-682v-493h768v-123h-888zM600 1495l-260 211h153l164 -211h-57z" />
    <glyph glyph-name="Eacute" unicode="&#xc9;" horiz-adv-x="948" 
d="M56 0v1356h888v-123h-768v-493h682v-124h-682v-493h768v-123h-888zM381 1495h-60l164 211h154z" />
    <glyph glyph-name="Ecircumflex" unicode="&#xca;" horiz-adv-x="958" 
d="M62 0v1356h888v-123h-768v-493h682v-124h-682v-493h768v-123h-888zM659 1497l-161 129l-162 -129h-129l199 176h184l196 -176h-127z" />
    <glyph glyph-name="Edieresis" unicode="&#xcb;" horiz-adv-x="956" 
d="M62 0v1358h888v-123h-768v-493h682v-126h-682v-493h768v-123h-888zM266 1499v123h121v-123h-121zM608 1499v123h119v-123h-119z" />
    <glyph glyph-name="Igrave" unicode="&#xcc;" horiz-adv-x="406" 
d="M224 0v1356h120v-1356h-120zM258 1495l-258 211h151l164 -211h-57z" />
    <glyph glyph-name="Iacute" unicode="&#xcd;" horiz-adv-x="406" 
d="M60 0v1356h120v-1356h-120zM145 1495h-57l164 211h154z" />
    <glyph glyph-name="Icircumflex" unicode="&#xce;" horiz-adv-x="594" 
d="M236 0v1356h120v-1356h-120zM458 1497l-163 129l-162 -129h-125l195 176h184l199 -176h-128z" />
    <glyph glyph-name="Idieresis" unicode="&#xcf;" horiz-adv-x="479" 
d="M178 0v1358h121v-1358h-121zM10 1499v123h117v-123h-117zM350 1499v123h119v-123h-119z" />
    <glyph glyph-name="Ntilde" unicode="&#xd1;" horiz-adv-x="1177" 
d="M987 0l-807 1153v-1153h-120v1354h131l808 -1153v1153h119v-1354h-131zM870 1706q0 -40 -15 -75.5t-40 -62t-58.5 -42t-70.5 -15.5q-31 0 -88 62q-58 61 -111 61q-113 0 -180 -69q0 39 14.5 74t40 61t58.5 41.5t71 15.5q29 0 89 -61q59 -62 112 -62q110 0 178 72z" />
    <glyph glyph-name="Ograve" unicode="&#xd2;" horiz-adv-x="1221" 
d="M1061 678q0 239 -105 385q-122 170 -348 170t-348 -170q-102 -144 -102 -385t102 -385q122 -170 348 -170t348 170q105 142 105 385zM1182 678q0 -291 -139 -473q-154 -205 -435 -205t-432 205q-139 182 -139 473q0 289 139 473q151 205 432 205t435 -205
q139 -184 139 -473zM721 1495l-261 211h154l164 -211h-57z" />
    <glyph glyph-name="Oacute" unicode="&#xd3;" horiz-adv-x="1221" 
d="M1063 678q0 239 -105 385q-122 170 -348 170t-348 -170q-102 -144 -102 -385t102 -385q122 -170 348 -170t348 170q105 142 105 385zM1184 678q0 -291 -139 -473q-154 -205 -435 -205t-432 205q-139 182 -139 473q0 289 139 473q151 205 432 205t435 -205
q139 -184 139 -473zM500 1495h-58l164 211h154z" />
    <glyph glyph-name="Ocircumflex" unicode="&#xd4;" horiz-adv-x="1229" 
d="M1065 678q0 239 -105 385q-122 170 -348 170t-348 -170q-102 -144 -102 -385t102 -385q122 -170 348 -170t348 170q105 142 105 385zM1186 678q0 -291 -139 -473q-154 -205 -435 -205t-432 205q-139 182 -139 473q0 289 139 473q151 205 432 205t435 -205
q139 -184 139 -473zM776 1497l-164 129l-162 -129h-127l197 176h185l198 -176h-127z" />
    <glyph glyph-name="Otilde" unicode="&#xd5;" horiz-adv-x="1231" 
d="M1067 678q0 239 -105 385q-117 168 -348 168q-230 0 -348 -168q-102 -144 -102 -385t102 -385q122 -170 348 -170t348 170q105 142 105 385zM1188 678q0 -291 -139 -473q-154 -205 -435 -205t-432 205q-139 182 -139 473q0 289 139 473q150 203 432 203q280 0 435 -203
q139 -187 139 -473zM897 1706q0 -40 -15 -75.5t-40.5 -62t-58.5 -42t-70 -15.5q-31 0 -89 61q-59 62 -112 62q-111 0 -178 -69q0 39 14.5 74t40 61t58.5 41.5t71 15.5q30 0 88 -61q57 -62 111 -62q112 0 180 72z" />
    <glyph glyph-name="Odieresis" unicode="&#xd6;" horiz-adv-x="1227" 
d="M1065 680q0 236 -105 385q-122 170 -348 170t-348 -170q-102 -149 -102 -385q0 -243 102 -387q122 -170 348 -170t348 170q105 147 105 387zM1186 680q0 -288 -139 -475q-154 -205 -435 -205t-432 205q-139 187 -139 475q0 286 139 473q151 205 432 205t435 -205
q139 -187 139 -473zM383 1499v123h119v-123h-119zM725 1499v123h119v-123h-119z" />
    <glyph glyph-name="multiply" unicode="&#xd7;" horiz-adv-x="657" 
d="M510 307l-182 199l-181 -199l-85 93l182 198l-182 196l85 93l181 -197l182 197l84 -93l-180 -196l180 -198z" />
    <glyph glyph-name="Oslash" unicode="&#xd8;" horiz-adv-x="1260" 
d="M1082 682q0 237 -105 389q-119 170 -349 170q-226 0 -348 -170q-102 -149 -102 -389q0 -239 102 -387q122 -170 348 -170q230 0 349 170q105 148 105 387zM1202 682q0 -288 -137 -475q-153 -207 -437 -207q-280 0 -433 207q-137 182 -137 475q0 295 137 477
q153 207 433 207q284 0 437 -207q137 -188 137 -477z" />
    <glyph glyph-name="Ugrave" unicode="&#xd9;" horiz-adv-x="1237" 
d="M1190 678q0 -291 -139 -473q-154 -205 -435 -205t-432 205q-139 182 -139 473v678h121v-678q0 -241 102 -385q122 -170 348 -170t348 170q105 142 105 385v678h121v-678zM729 1495l-260 211h153l164 -211h-57z" />
    <glyph glyph-name="Uacute" unicode="&#xda;" horiz-adv-x="1237" 
d="M1192 678q0 -291 -139 -473q-154 -205 -435 -205t-432 205q-139 182 -139 473v678h121v-678q0 -241 102 -385q122 -170 348 -170t348 170q105 142 105 385v678h121v-678zM508 1495h-58l164 211h154z" />
    <glyph glyph-name="Ucircumflex" unicode="&#xdb;" horiz-adv-x="1245" 
d="M1194 678q0 -291 -139 -473q-154 -205 -435 -205q-283 0 -431 205q-140 182 -140 473v678h121v-678q0 -241 102 -385q122 -170 348 -170t348 170q105 142 105 385v678h121v-678zM784 1497l-164 129l-162 -129h-126l196 176h185l199 -176h-128z" />
    <glyph glyph-name="Udieresis" unicode="&#xdc;" horiz-adv-x="1245" 
d="M1194 680q0 -288 -139 -475q-154 -205 -435 -205q-283 0 -431 205q-140 187 -140 475v678h121v-678q0 -239 102 -387q122 -170 348 -170t348 170q105 147 105 387v678h121v-678zM391 1499v123h119v-123h-119zM733 1499v123h119v-123h-119z" />
    <glyph glyph-name="Yacute" unicode="&#xdd;" horiz-adv-x="1120" 
d="M620 657v-657h-118v657l-494 699h150l403 -574l403 574h148zM450 1495h-56l163 211h154z" />
    <glyph glyph-name="agrave" unicode="&#xe0;" horiz-adv-x="895" 
d="M738 506q0 400 -300 400q-299 0 -299 -400t299 -400q300 0 300 400zM738 0v184q-65 -99 -124 -137q-71 -47 -176 -47q-213 0 -313 153q-88 127 -88 353q0 223 88 350q100 154 313 154q105 0 176 -48q29 -19 59.5 -53.5t64.5 -85.5v187h102v-1010h-102zM549 1153l-258 213
h153l164 -213h-59z" />
    <glyph glyph-name="aacute" unicode="&#xe1;" horiz-adv-x="895" 
d="M742 506q0 400 -300 400q-299 0 -299 -400t299 -400q300 0 300 400zM742 0v184q-65 -99 -124 -137q-71 -47 -176 -47q-213 0 -313 153q-88 127 -88 353q0 223 88 350q100 154 313 154q105 0 176 -48q29 -19 59.5 -53.5t64.5 -85.5v187h102v-1010h-102zM332 1153h-58
l164 213h154z" />
    <glyph glyph-name="acircumflex" unicode="&#xe2;" horiz-adv-x="910" 
d="M746 506q0 400 -300 400q-299 0 -299 -400t299 -400q300 0 300 400zM746 0v184q-65 -99 -124 -137q-71 -47 -176 -47q-213 0 -313 153q-88 127 -88 353q0 221 88 352q100 154 313 154q105 0 176 -48q29 -19 59.5 -53.5t64.5 -85.5v187h102v-1012h-102zM608 1153l-162 133
l-162 -133h-128l198 178h185l199 -178h-130z" />
    <glyph glyph-name="atilde" unicode="&#xe3;" horiz-adv-x="916" 
d="M750 506q0 397 -300 397q-299 0 -299 -397q0 -400 299 -400q300 0 300 400zM750 0v184q-65 -99 -124 -137q-71 -47 -176 -47q-208 0 -313 153q-88 127 -88 353q0 223 88 350q105 154 313 154q103 0 176 -50q29 -19 59.5 -53.5t64.5 -85.5v189h102v-1010h-102zM733 1364
q0 -40 -15.5 -75.5t-41 -62t-58.5 -42t-69 -15.5q-31 0 -89 61q-59 62 -112 62q-111 0 -178 -69q0 73 53 135q52 60 131 60q32 0 86 -64q59 -62 113 -62q108 0 180 72z" />
    <glyph glyph-name="adieresis" unicode="&#xe4;" horiz-adv-x="908" 
d="M744 508q0 400 -300 400q-299 0 -299 -400q0 -402 299 -402q300 0 300 402zM744 0v184q-65 -99 -124 -137q-71 -47 -176 -47q-213 0 -313 153q-88 131 -88 355q0 221 88 352q100 154 313 154q105 0 176 -48q57 -42 124 -141v189h102v-1014h-102zM215 1155v125h119v-125
h-119zM555 1155v125h121v-125h-121z" />
    <glyph glyph-name="aring" unicode="&#xe5;" horiz-adv-x="901" 
d="M742 506q0 400 -300 400q-299 0 -299 -400t299 -400q300 0 300 400zM528 1260q0 36 -24.5 61.5t-61.5 25.5q-17 0 -32.5 -7t-27.5 -19t-19 -27.5t-7 -33.5t7 -34t19 -28t27.5 -19.5t32.5 -7.5q18 0 34 7.5t27.5 19.5t18 28t6.5 34zM742 0v184q-65 -99 -124 -137
q-71 -47 -176 -47q-213 0 -313 153q-88 127 -88 353q0 223 88 350q100 154 313 154q105 0 176 -48q29 -19 59.5 -53.5t64.5 -85.5v187h102v-1010h-102zM572 1260q0 -54 -38 -95q-38 -39 -92 -39q-53 0 -90 39q-37 37 -37 95q0 54 37 91q37 40 90 40q55 0 92 -40
q38 -41 38 -91z" />
    <glyph glyph-name="ae" unicode="&#xe6;" horiz-adv-x="1632" 
d="M768 512q0 406 -299 406t-299 -406q0 -404 299 -404t299 404zM1466 568q-27 350 -297 350t-296 -350h593zM1571 485q0 -6 -0.5 -13.5t-1.5 -15.5h-696q28 -348 296 -348q157 0 234 113l100 -28q-97 -193 -334 -193q-159 0 -299 176v-176h-102v189q-65 -101 -123 -142
q-71 -47 -176 -47q-211 0 -313 158q-88 130 -88 354t88 354q102 158 313 158q106 0 176 -49q56 -41 123 -142v191h102v-189q33 49 64.5 83t60.5 54q70 52 174 52q209 0 313 -158q89 -131 89 -354v-27z" />
    <glyph glyph-name="egrave" unicode="&#xe8;" horiz-adv-x="873" 
d="M736 559q-27 347 -298 347q-265 0 -297 -347h595zM840 479q0 -6 -0.5 -12.5t-1.5 -14.5h-697q27 -346 297 -346q160 0 234 113l100 -28q-98 -191 -334 -191q-213 0 -313 153q-88 127 -88 353q0 219 88 350q105 154 313 154q211 0 314 -154q88 -127 88 -350v-27zM549 1153
l-258 213h153l164 -213h-59z" />
    <glyph glyph-name="eacute" unicode="&#xe9;" horiz-adv-x="873" 
d="M740 559q-27 347 -298 347q-265 0 -297 -347h595zM844 479q0 -6 -0.5 -12.5t-1.5 -14.5h-697q27 -346 297 -346q160 0 234 113l100 -28q-98 -191 -334 -191q-213 0 -313 153q-88 127 -88 353q0 219 88 350q105 154 313 154q211 0 314 -154q88 -127 88 -350v-27zM332 1153
h-58l164 213h154z" />
    <glyph glyph-name="ecircumflex" unicode="&#xea;" horiz-adv-x="885" 
d="M744 559q-27 347 -298 347q-270 0 -297 -347h595zM848 479q0 -6 -0.5 -12.5t-1.5 -14.5h-697q27 -346 297 -346q156 0 234 115l100 -30q-98 -191 -334 -191q-213 0 -313 153q-88 127 -88 353q0 219 88 350q105 156 313 156q211 0 314 -154q88 -131 88 -352v-27zM608 1153
l-162 133l-162 -133h-128l198 178h185l199 -178h-130z" />
    <glyph glyph-name="edieresis" unicode="&#xeb;" horiz-adv-x="881" 
d="M742 559q-28 349 -298 349q-269 0 -297 -349h595zM846 481q0 -6 -0.5 -12.5t-1.5 -14.5h-697q28 -348 297 -348q156 0 234 115l100 -30q-98 -191 -334 -191q-213 0 -313 153q-88 131 -88 355q0 223 88 350q105 156 313 156q211 0 314 -154q88 -131 88 -352v-27zM215 1155
v125h119v-125h-119zM555 1155v125h121v-125h-121z" />
    <glyph glyph-name="igrave" unicode="&#xec;" 
d="M78 0v1024h121v-1024h-121z" />
    <glyph glyph-name="iacute" unicode="&#xed;" 
d="M78 0v1024h121v-1024h-121z" />
    <glyph glyph-name="icircumflex" unicode="&#xee;" 
d="M78 0v1024h121v-1024h-121z" />
    <glyph glyph-name="idieresis" unicode="&#xef;" 
d="M78 0v1024h121v-1024h-121z" />
    <glyph glyph-name="ntilde" unicode="&#xf1;" horiz-adv-x="924" 
d="M764 0v506q0 397 -299 397t-299 -397v-506h-102v1010h102v-189q68 101 122 139q71 50 177 50q210 0 313 -154q88 -125 88 -350v-506h-102zM748 1364q0 -40 -15.5 -75.5t-41.5 -62t-59 -42t-69 -15.5q-29 0 -88 62q-58 61 -112 61q-112 0 -179 -69q0 74 53 135
q54 60 132 60q31 0 85 -64q59 -62 114 -62q108 0 180 72z" />
    <glyph glyph-name="ograve" unicode="&#xf2;" horiz-adv-x="881" 
d="M738 506q0 400 -300 400q-299 0 -299 -400t299 -400q300 0 300 400zM840 506q0 -226 -88 -353q-104 -153 -314 -153q-213 0 -313 153q-88 127 -88 353q0 219 88 350q105 154 313 154q211 0 314 -154q88 -127 88 -350zM549 1153l-258 213h153l164 -213h-59z" />
    <glyph glyph-name="oacute" unicode="&#xf3;" horiz-adv-x="881" 
d="M742 506q0 400 -300 400q-299 0 -299 -400t299 -400q300 0 300 400zM844 506q0 -226 -88 -353q-104 -153 -314 -153q-213 0 -313 153q-88 127 -88 353q0 219 88 350q105 154 313 154q211 0 314 -154q88 -127 88 -350zM332 1153h-58l164 213h154z" />
    <glyph glyph-name="ocircumflex" unicode="&#xf4;" horiz-adv-x="893" 
d="M746 506q0 400 -300 400q-299 0 -299 -400t299 -400q300 0 300 400zM848 506q0 -226 -88 -353q-104 -153 -314 -153q-213 0 -313 153q-88 127 -88 353q0 223 88 350q105 156 313 156q211 0 314 -154q88 -131 88 -352zM608 1153l-162 133l-162 -133h-128l198 178h185
l199 -178h-130z" />
    <glyph glyph-name="otilde" unicode="&#xf5;" horiz-adv-x="901" 
d="M750 506q0 397 -300 397q-299 0 -299 -397q0 -400 299 -400q300 0 300 400zM852 506q0 -226 -88 -353q-104 -153 -314 -153q-213 0 -313 153q-88 127 -88 353q0 219 88 350q105 154 313 154q211 0 314 -154q88 -127 88 -350zM733 1364q0 -40 -15.5 -75.5t-41 -62
t-58.5 -42t-69 -15.5q-31 0 -89 61q-59 62 -112 62q-111 0 -178 -69q0 73 53 135q52 60 131 60q32 0 86 -64q59 -62 113 -62q108 0 180 72z" />
    <glyph glyph-name="odieresis" unicode="&#xf6;" horiz-adv-x="891" 
d="M744 508q0 400 -300 400q-299 0 -299 -400q0 -402 299 -402q300 0 300 402zM846 508q0 -224 -88 -355q-104 -153 -314 -153q-213 0 -313 153q-88 127 -88 355q0 223 88 350q105 156 313 156q211 0 314 -154q88 -131 88 -352zM215 1155v125h119v-125h-119zM555 1155v125
h121v-125h-121z" />
    <glyph glyph-name="oslash" unicode="&#xf8;" horiz-adv-x="920" 
d="M758 512q0 406 -300 406q-298 0 -298 -406q0 -404 298 -404q300 0 300 404zM860 512q0 -226 -88 -354q-104 -158 -314 -158q-211 0 -315 158q-85 130 -85 354q0 225 87 354q104 158 313 158q210 0 314 -158q88 -128 88 -354z" />
    <glyph glyph-name="ugrave" unicode="&#xf9;" horiz-adv-x="901" 
d="M744 0v189q-34 -52 -65 -87t-59 -55q-73 -47 -176 -47q-208 0 -313 153q-88 127 -88 353v504h102v-504q0 -400 299 -400q300 0 300 400v504h102v-1010h-102zM555 1153l-258 213h153l164 -213h-59z" />
    <glyph glyph-name="uacute" unicode="&#xfa;" horiz-adv-x="901" 
d="M748 0v189q-34 -52 -65 -87t-59 -55q-73 -47 -176 -47q-208 0 -313 153q-88 127 -88 353v504h102v-504q0 -400 299 -400q300 0 300 400v504h102v-1010h-102zM338 1153h-58l164 213h154z" />
    <glyph glyph-name="ucircumflex" unicode="&#xfb;" horiz-adv-x="918" 
d="M754 0v189q-34 -52 -65 -87t-59 -55q-73 -47 -176 -47q-208 0 -313 153q-87 126 -87 353v506h102v-506q0 -400 298 -400q300 0 300 400v506h102v-1012h-102zM616 1153l-162 133l-161 -133h-129l199 178h184l199 -178h-130z" />
    <glyph glyph-name="udieresis" unicode="&#xfc;" horiz-adv-x="916" 
d="M752 0v191q-71 -106 -124 -144q-73 -47 -176 -47q-213 0 -313 153q-88 131 -88 355v506h102v-506q0 -402 299 -402q300 0 300 402v506h102v-1014h-102zM224 1155v125h118v-125h-118zM563 1155v125h121v-125h-121z" />
    <glyph glyph-name="yacute" unicode="&#xfd;" horiz-adv-x="901" 
d="M408 -339h-111l101 280l-379 1073h106l325 -922l326 922h111zM340 1153h-58l164 213h154z" />
    <glyph glyph-name="ydieresis" unicode="&#xff;" horiz-adv-x="903" 
d="M408 -339h-111l101 280l-379 1075h106l325 -924l326 924h111zM221 1157v123h119v-123h-119zM561 1157v123h121v-123h-121z" />
    </font>
</defs>
</svg>
